  0
SECTION
  2
HEADER
  9
$ACADVER
  1
AC1021
  9
$DWGCODEPAGE
  3
ANSI_1252
  9
$EXTMAX
 10
2100.0
 20
1485.0
 30
0.0
  9
$EXTMIN
 10
0.0
 20
0.0
 30
0.0
  9
$LIMMIN
 10
0.0
 20
0.0
  9
$LIMMAX
 10
2100.0
 20
1485.0
  9
$VIEWCTR
 10
1050.0
 20
742.5
  9
$VIEWSIZE
 40
1485.0
  9
$CLAYER
  8
0
  9
$LTSCALE
 40
115.5
  9
$CELTYPE
  6
BYLAYER
  9
$DIMSCALE
 40
1.0
  9
$DIMASZ
 40
17.5
  9
$DIMEXO
 40
13.125
  9
$DIMDLI
 40
79.8
  9
$DIMEXE
 40
37.8
  9
$DIMCEN
 40
18.9
  9
$DIMLFAC
 40
1.0
  9
$DIMBLK
  1
_FILLED
  9
$DIMTXT
 40
12.5
  9
$DIMTOL
 70
1
  9
$DIMLIM
 70
0
  9
$DIMTFAC
 40
1.0
  9
$DIMTP
 40
0.005
  9
$DIMTM
 40
0.005
  9
$PDMODE
 70
3
  9
$PDSIZE
 40
0.3125
  9
$HANDSEED
  5
4B7
  9
$TILEMODE
 70
1
  9
$MEASUREMENT
 70
1
  9
$INSUNITS
 70
4
  0
ENDSEC
  0
SECTION
  2
CLASSES
  0
CLASS
  1
ACDBDICTIONARYWDFLT
  2
AcDbDictionaryWithDefault
  3
AutoCAD 2000
 90
0
 91
1
280
0
281
0
  0
CLASS
  1
ACDBPLACEHOLDER
  2
AcDbPlaceHolder
  3
AutoCAD 2000
 90
0
 91
1
280
0
281
0
  0
CLASS
  1
LAYOUT
  2
AcDbLayout
  3
AutoCAD 2000
 90
0
 91
0
280
0
281
0
  0
ENDSEC
  0
SECTION
  2
TABLES
  0
TABLE
  2
VPORT
  5
8
100
AcDbSymbolTable
 70
2
  0
VPORT
  5
1F4
100
AcDbSymbolTableRecord
100
AcDbViewportTableRecord
  2
*ACTIVE
 70
0
 10
0.0
 20
0.0
 11
1.0
 21
1.0
 12
1050.0
 22
742.5
 13
0.0
 23
0.0
 14
1.0
 24
1.0
 15
0.0
 25
0.0
 16
0.0
 26
0.0
 36
1.0
 17
0.0
 27
0.0
 37
0.0
 40
1485.0
 41
1.4141414141
 42
50.0
 43
0.0
 44
0.0
 50
0.0
 51
0.0
 71
0
 72
100
 73
1
 74
1
 75
0
 76
0
 77
0
 78
0
  0
ENDTAB
  0
TABLE
  2
LTYPE
  5
5
100
AcDbSymbolTable
 70
6
  0
LTYPE
  5
14
100
AcDbSymbolTableRecord
100
AcDbLinetypeTableRecord
  2
BYBLOCK
 70
0
  3

 72
65
 73
0
 40
0.0
  0
LTYPE
  5
15
100
AcDbSymbolTableRecord
100
AcDbLinetypeTableRecord
  2
BYLAYER
 70
0
  3

 72
65
 73
0
 40
0.0
  0
LTYPE
  5
16
100
AcDbSymbolTableRecord
100
AcDbLinetypeTableRecord
  2
CONTINUOUS
 70
64
  3
Solid line
 72
65
 73
0
 40
0.0
  0
LTYPE
  5
1F5
100
AcDbSymbolTableRecord
100
AcDbLinetypeTableRecord
  2
CENTER
 70
64
  3
____ _ ____ _ ____ _ ____ _ ____ _ ____ _ ____
 72
65
 73
4
 40
0.6
 49
0.375
 74
0
 49
-0.075
 74
0
 49
0.075
 74
0
 49
-0.075
 74
0
  0
LTYPE
  5
1F6
100
AcDbSymbolTableRecord
100
AcDbLinetypeTableRecord
  2
HIDDEN
 70
64
  3
- - - - - - - - - - - - - - - - - - - -
 72
65
 73
2
 40
0.2
 49
0.1
 74
0
 49
-0.1
 74
0
  0
LTYPE
  5
1F7
100
AcDbSymbolTableRecord
100
AcDbLinetypeTableRecord
  2
PHANTOM
 70
64
  3
_____ _ _ _____ _ _ _____ _ _ _____
 72
65
 73
6
 40
0.8
 49
0.45
 74
0
 49
-0.05
 74
0
 49
0.1
 74
0
 49
-0.05
 74
0
 49
0.1
 74
0
 49
-0.05
 74
0
  0
LTYPE
  5
1F8
100
AcDbSymbolTableRecord
100
AcDbLinetypeTableRecord
  2
DOT
 70
64
  3
. . . . . . . . . . . . . . . . . . . .
 72
65
 73
2
 40
0.2
 49
0.1
 74
0
 49
-0.1
 74
0
  0
LTYPE
  5
1F9
100
AcDbSymbolTableRecord
100
AcDbLinetypeTableRecord
  2
DASHED
 70
64
  3
- - - - - - - - - - - - - - - - - - - -
 72
65
 73
2
 40
0.2
 49
0.1
 74
0
 49
-0.1
 74
0
  0
ENDTAB
  0
TABLE
  2
LAYER
  5
2
100
AcDbSymbolTable
 70
36
  0
LAYER
  5
10
100
AcDbSymbolTableRecord
100
AcDbLayerTableRecord
  2
0
 70
0
 62
7
  6
CONTINUOUS
370
-3
390
F
  0
LAYER
  5
1FA
100
AcDbSymbolTableRecord
100
AcDbLayerTableRecord
  2
DEFAULT_1
 70
0
 62
7
  6
CENTER
370
-3
390
F
  0
LAYER
  5
1FB
100
AcDbSymbolTableRecord
100
AcDbLayerTableRecord
  2
DEFAULT_2
 70
0
 62
8
  6
HIDDEN
370
-3
390
F
  0
LAYER
  5
1FC
100
AcDbSymbolTableRecord
100
AcDbLayerTableRecord
  2
DEFAULT_3
 70
0
 62
7
  6
PHANTOM
370
-3
390
F
  0
LAYER
  5
1FD
100
AcDbSymbolTableRecord
100
AcDbLayerTableRecord
  2
ANSICHT_3D
 70
0
 62
7
  6
CONTINUOUS
370
-3
390
F
  0
LAYER
  5
1FE
100
AcDbSymbolTableRecord
100
AcDbLayerTableRecord
  2
ANSICHT_LINKS
 70
0
 62
7
  6
CONTINUOUS
370
-3
390
F
  0
LAYER
  5
1FF
100
AcDbSymbolTableRecord
100
AcDbLayerTableRecord
  2
ANSICHT_RECHTS
 70
0
 62
7
  6
CONTINUOUS
370
-3
390
F
  0
LAYER
  5
200
100
AcDbSymbolTableRecord
100
AcDbLayerTableRecord
  2
AUSBLENDEN
 70
0
 62
7
  6
CONTINUOUS
370
-3
390
F
  0
LAYER
  5
201
100
AcDbSymbolTableRecord
100
AcDbLayerTableRecord
  2
BEZUGSACHSEN
 70
0
 62
7
  6
CONTINUOUS
370
-3
390
F
  0
LAYER
  5
202
100
AcDbSymbolTableRecord
100
AcDbLayerTableRecord
  2
BEZUGSEBENEN
 70
0
 62
7
  6
CONTINUOUS
370
-3
390
F
  0
LAYER
  5
203
100
AcDbSymbolTableRecord
100
AcDbLayerTableRecord
  2
BG_STARTBEZUEGE
 70
0
 62
7
  6
CONTINUOUS
370
-3
390
F
  0
LAYER
  5
204
100
AcDbSymbolTableRecord
100
AcDbLayerTableRecord
  2
BOHRUNGEN
 70
0
 62
7
  6
CONTINUOUS
370
-3
390
F
  0
LAYER
  5
205
100
AcDbSymbolTableRecord
100
AcDbLayerTableRecord
  2
FASEN
 70
0
 62
7
  6
CONTINUOUS
370
-3
390
F
  0
LAYER
  5
206
100
AcDbSymbolTableRecord
100
AcDbLayerTableRecord
  2
FLAECHEN
 70
0
 62
7
  6
CONTINUOUS
370
-3
390
F
  0
LAYER
  5
207
100
AcDbSymbolTableRecord
100
AcDbLayerTableRecord
  2
GEWINDE
 70
0
 62
7
  6
CONTINUOUS
370
-3
390
F
  0
LAYER
  5
208
100
AcDbSymbolTableRecord
100
AcDbLayerTableRecord
  2
HILFEN
 70
0
 62
7
  6
CONTINUOUS
370
-3
390
F
  0
LAYER
  5
209
100
AcDbSymbolTableRecord
100
AcDbLayerTableRecord
  2
KOSM_3D
 70
0
 62
7
  6
CONTINUOUS
370
-3
390
F
  0
LAYER
  5
20A
100
AcDbSymbolTableRecord
100
AcDbLayerTableRecord
  2
KOSM_NEW_VIEW10
 70
0
 62
7
  6
CONTINUOUS
370
-3
390
F
  0
LAYER
  5
20B
100
AcDbSymbolTableRecord
100
AcDbLayerTableRecord
  2
KURVEN
 70
0
 62
7
  6
CONTINUOUS
370
-3
390
F
  0
LAYER
  5
20C
100
AcDbSymbolTableRecord
100
AcDbLayerTableRecord
  2
LAY0001
 70
0
 62
7
  6
CONTINUOUS
370
-3
390
F
  0
LAYER
  5
20D
100
AcDbSymbolTableRecord
100
AcDbLayerTableRecord
  2
MOTOR
 70
0
 62
7
  6
CONTINUOUS
370
-3
390
F
  0
LAYER
  5
20E
100
AcDbSymbolTableRecord
100
AcDbLayerTableRecord
  2
PLAZIERUNG
 70
0
 62
7
  6
CONTINUOUS
370
-3
390
F
  0
LAYER
  5
20F
100
AcDbSymbolTableRecord
100
AcDbLayerTableRecord
  2
RUNDUNGEN
 70
0
 62
7
  6
CONTINUOUS
370
-3
390
F
  0
LAYER
  5
210
100
AcDbSymbolTableRecord
100
AcDbLayerTableRecord
  2
STOERK
 70
0
 62
7
  6
CONTINUOUS
370
-3
390
F
  0
LAYER
  5
211
100
AcDbSymbolTableRecord
100
AcDbLayerTableRecord
  2
TEIL_STARTBEZUEGE
 70
0
 62
7
  6
CONTINUOUS
370
-3
390
F
  0
LAYER
  5
212
100
AcDbSymbolTableRecord
100
AcDbLayerTableRecord
  2
XSEC_DATUMS
 70
0
 62
7
  6
CONTINUOUS
370
-3
390
F
  0
LAYER
  5
213
100
AcDbSymbolTableRecord
100
AcDbLayerTableRecord
  2
ZEICHNUNGSBEMASSUNGEN
 70
0
 62
7
  6
CONTINUOUS
370
-3
390
F
  0
LAYER
  5
214
100
AcDbSymbolTableRecord
100
AcDbLayerTableRecord
  2
_2D_DELETED_OBJS
 70
0
 62
7
  6
CONTINUOUS
370
-3
390
F
  0
LAYER
  5
215
100
AcDbSymbolTableRecord
100
AcDbLayerTableRecord
  2
_BLACK_HOLE
 70
0
 62
7
  6
CONTINUOUS
370
-3
390
F
  0
ENDTAB
  0
TABLE
  2
STYLE
  5
3
100
AcDbSymbolTable
 70
1
  0
STYLE
  5
11
100
AcDbSymbolTableRecord
100
AcDbTextStyleTableRecord
  2
STANDARD
 70
0
 40
0.0
 41
0.7
 50
0.0
 71
0
 42
0.2
  3
txt
  4

  0
STYLE
  5
216
100
AcDbSymbolTableRecord
100
AcDbTextStyleTableRecord
  2
TEXTSTYLE_1
 70
0
 40
0.0
 41
0.8
 50
0.0
 71
0
 42
0.2
  3
gdt
  4

  0
STYLE
  5
217
100
AcDbSymbolTableRecord
100
AcDbTextStyleTableRecord
  2
TEXTSTYLE_2
 70
0
 40
0.0
 41
0.7
 50
0.0
 71
0
 42
0.2
  3
gdt
  4

  0
STYLE
  5
218
100
AcDbSymbolTableRecord
100
AcDbTextStyleTableRecord
  2
TEXTSTYLE_3
 70
0
 40
0.0
 41
0.6
 50
0.0
 71
0
 42
0.2
  3
txt
  4

  0
ENDTAB
  0
TABLE
  2
VIEW
  5
6
100
AcDbSymbolTable
 70
0
  0
ENDTAB
  0
TABLE
  2
UCS
  5
7
100
AcDbSymbolTable
 70
0
  0
ENDTAB
  0
TABLE
  2
APPID
  5
9
100
AcDbSymbolTable
 70
1
  0
APPID
  5
219
100
AcDbSymbolTableRecord
100
AcDbRegAppTableRecord
  2
ACAD
 70
0
  0
ENDTAB
  0
TABLE
  2
BLOCK_RECORD
  5
1
100
AcDbSymbolTable
 70
0
  0
BLOCK_RECORD
  5
21A
100
AcDbSymbolTableRecord
100
AcDbBlockTableRecord
  2
*Model_Space
  0
BLOCK_RECORD
  5
21B
100
AcDbSymbolTableRecord
100
AcDbBlockTableRecord
  2
*Paper_Space
  0
BLOCK_RECORD
  5
21C
100
AcDbSymbolTableRecord
100
AcDbBlockTableRecord
  2
_FILLED
  0
BLOCK_RECORD
  5
21D
100
AcDbSymbolTableRecord
100
AcDbBlockTableRecord
  2
*D0
  0
BLOCK_RECORD
  5
21E
100
AcDbSymbolTableRecord
100
AcDbBlockTableRecord
  2
*D1
  0
BLOCK_RECORD
  5
21F
100
AcDbSymbolTableRecord
100
AcDbBlockTableRecord
  2
*D2
  0
BLOCK_RECORD
  5
220
100
AcDbSymbolTableRecord
100
AcDbBlockTableRecord
  2
*D3
  0
BLOCK_RECORD
  5
221
100
AcDbSymbolTableRecord
100
AcDbBlockTableRecord
  2
*D4
  0
BLOCK_RECORD
  5
222
100
AcDbSymbolTableRecord
100
AcDbBlockTableRecord
  2
*D5
  0
BLOCK_RECORD
  5
223
100
AcDbSymbolTableRecord
100
AcDbBlockTableRecord
  2
*D6
  0
BLOCK_RECORD
  5
224
100
AcDbSymbolTableRecord
100
AcDbBlockTableRecord
  2
*D7
  0
BLOCK_RECORD
  5
225
100
AcDbSymbolTableRecord
100
AcDbBlockTableRecord
  2
*D8
  0
BLOCK_RECORD
  5
226
100
AcDbSymbolTableRecord
100
AcDbBlockTableRecord
  2
*D9
  0
BLOCK_RECORD
  5
227
100
AcDbSymbolTableRecord
100
AcDbBlockTableRecord
  2
*D10
  0
BLOCK_RECORD
  5
228
100
AcDbSymbolTableRecord
100
AcDbBlockTableRecord
  2
*D11
  0
BLOCK_RECORD
  5
229
100
AcDbSymbolTableRecord
100
AcDbBlockTableRecord
  2
*D12
  0
BLOCK_RECORD
  5
22A
100
AcDbSymbolTableRecord
100
AcDbBlockTableRecord
  2
*D13
  0
BLOCK_RECORD
  5
22B
100
AcDbSymbolTableRecord
100
AcDbBlockTableRecord
  2
*D14
  0
BLOCK_RECORD
  5
22C
100
AcDbSymbolTableRecord
100
AcDbBlockTableRecord
  2
*D15
  0
BLOCK_RECORD
  5
22D
100
AcDbSymbolTableRecord
100
AcDbBlockTableRecord
  2
*D16
  0
BLOCK_RECORD
  5
22E
100
AcDbSymbolTableRecord
100
AcDbBlockTableRecord
  2
*D17
  0
BLOCK_RECORD
  5
22F
100
AcDbSymbolTableRecord
100
AcDbBlockTableRecord
  2
*D18
  0
BLOCK_RECORD
  5
230
100
AcDbSymbolTableRecord
100
AcDbBlockTableRecord
  2
*D19
  0
BLOCK_RECORD
  5
231
100
AcDbSymbolTableRecord
100
AcDbBlockTableRecord
  2
*D20
  0
BLOCK_RECORD
  5
232
100
AcDbSymbolTableRecord
100
AcDbBlockTableRecord
  2
*D21
  0
BLOCK_RECORD
  5
233
100
AcDbSymbolTableRecord
100
AcDbBlockTableRecord
  2
*D22
  0
BLOCK_RECORD
  5
234
100
AcDbSymbolTableRecord
100
AcDbBlockTableRecord
  2
*D23
  0
BLOCK_RECORD
  5
235
100
AcDbSymbolTableRecord
100
AcDbBlockTableRecord
  2
*D24
  0
BLOCK_RECORD
  5
236
100
AcDbSymbolTableRecord
100
AcDbBlockTableRecord
  2
SYMBOL_70_BL3
  0
BLOCK_RECORD
  5
237
100
AcDbSymbolTableRecord
100
AcDbBlockTableRecord
  2
SYMBOL_47_BL2
  0
BLOCK_RECORD
  5
238
100
AcDbSymbolTableRecord
100
AcDbBlockTableRecord
  2
SYMBOL_38_BL1
  0
BLOCK_RECORD
  5
239
100
AcDbSymbolTableRecord
100
AcDbBlockTableRecord
  2
SYMBOL_64_BL0
  0
ENDTAB
  0
TABLE
  2
DIMSTYLE
  5
A
100
AcDbSymbolTable
 70
1
100
AcDbDimStyleTable
 71
0
  0
DIMSTYLE
105
23A
100
AcDbSymbolTableRecord
100
AcDbDimStyleTableRecord
  2
STANDARD
 70
0
  3

  4

 40
1.0
 41
17.5
 42
0.0625
 43
0.38
 44
0.18
 45
0.0
 46
0.0
 47
0.005
 48
0.005
140
12.5
141
0.09
142
0.0
143
25.4
144
1.0
145
0.0
146
1.0
147
0.09
 71
1.0
 72
0.0
 73
0
 74
0
 75
0
 76
0
 77
1
 78
8
170
0
171
2
172
0
173
0
174
0
175
0
176
0
177
0
178
5
270
2
271
3
272
3
273
2
274
2
275
0
280
0
281
0
282
0
283
1
284
8
285
0
286
0
287
3
288
0
340
11
341
21C
342
21C
343
21C
344
21C
  0
DIMSTYLE
105
23B
100
AcDbSymbolTableRecord
100
AcDbDimStyleTableRecord
  2
DIMSTYLE_1
 70
0
  3

  4

 40
1.0
 41
17.5
 42
0.0625
 43
0.38
 44
0.18
 45
0.0
 46
0.0
 47
0.5
 48
0.5
140
12.5
141
0.09
142
0.0
143
25.4
144
1.0
145
0.0
146
1.0
147
0.09
 71
0.0
 72
0.0
 73
0
 74
0
 75
0
 76
0
 77
1
 78
8
170
0
171
2
172
0
173
0
174
0
175
0
176
0
177
0
178
5
270
2
271
3
272
3
273
2
274
2
275
0
280
0
281
0
282
0
283
1
284
8
285
0
286
0
287
3
288
0
340
11
341
21C
342
21C
343
21C
344
21C
  0
DIMSTYLE
105
23C
100
AcDbSymbolTableRecord
100
AcDbDimStyleTableRecord
  2
DIMSTYLE_2
 70
0
  3

  4

 40
1.0
 41
17.5
 42
0.0625
 43
0.38
 44
0.18
 45
0.0
 46
0.0
 47
0.3
 48
0.3
140
12.5
141
0.09
142
0.0
143
25.4
144
1.0
145
0.0
146
1.0
147
0.09
 71
0.0
 72
0.0
 73
0
 74
0
 75
0
 76
0
 77
1
 78
8
170
0
171
2
172
0
173
0
174
0
175
0
176
0
177
0
178
5
270
2
271
3
272
3
273
2
274
2
275
0
280
0
281
0
282
0
283
1
284
8
285
0
286
0
287
3
288
0
340
11
341
21C
342
21C
343
21C
344
21C
  0
DIMSTYLE
105
23D
100
AcDbSymbolTableRecord
100
AcDbDimStyleTableRecord
  2
DIMSTYLE_3
 70
0
  3

  4

 40
1.0
 41
17.5
 42
0.0625
 43
0.38
 44
0.18
 45
0.0
 46
0.0
 47
0.5
 48
0.5
140
12.5
141
0.09
142
0.0
143
25.4
144
1.0
145
0.0
146
1.0
147
0.09
 71
0.0
 72
0.0
 73
0
 74
0
 75
0
 76
0
 77
1
 78
8
170
0
171
2
172
0
173
0
174
0
175
0
176
0
177
0
178
5
270
2
271
2
272
2
273
2
274
2
275
0
280
0
281
0
282
0
283
1
284
8
285
0
286
0
287
3
288
0
340
11
341
21C
342
21C
343
21C
344
21C
  0
DIMSTYLE
105
23E
100
AcDbSymbolTableRecord
100
AcDbDimStyleTableRecord
  2
DIMSTYLE_4
 70
0
  3

  4

 40
1.0
 41
17.5
 42
0.0625
 43
0.38
 44
0.18
 45
0.0
 46
0.0
 47
0.5
 48
0.5
140
12.5
141
0.09
142
0.0
143
25.4
144
1.0
145
0.0
146
1.0
147
0.09
 71
0.0
 72
0.0
 73
0
 74
0
 75
0
 76
0
 77
1
 78
8
170
0
171
2
172
0
173
0
174
0
175
0
176
0
177
0
178
5
270
2
271
2
272
2
273
2
274
2
275
0
280
0
281
0
282
0
283
1
284
8
285
0
286
0
287
3
288
0
340
11
341
21C
342
21C
343
21C
344
21C
  0
DIMSTYLE
105
23F
100
AcDbSymbolTableRecord
100
AcDbDimStyleTableRecord
  2
DIMSTYLE_5
 70
0
  3

  4

 40
1.0
 41
17.5
 42
0.0625
 43
0.38
 44
0.18
 45
0.0
 46
0.0
 47
0.2
 48
0.2
140
12.5
141
0.09
142
0.0
143
25.4
144
1.0
145
0.0
146
1.0
147
0.09
 71
0.0
 72
0.0
 73
0
 74
0
 75
0
 76
0
 77
1
 78
8
170
0
171
2
172
0
173
0
174
0
175
0
176
0
177
0
178
5
270
2
271
3
272
3
273
2
274
2
275
0
280
0
281
0
282
0
283
1
284
8
285
0
286
0
287
3
288
0
340
11
341
21C
342
21C
343
21C
344
21C
  0
DIMSTYLE
105
240
100
AcDbSymbolTableRecord
100
AcDbDimStyleTableRecord
  2
DIMSTYLE_6
 70
0
  3

  4

 40
1.0
 41
17.5
 42
0.0625
 43
0.38
 44
0.18
 45
0.0
 46
0.0
 47
-0.01
 48
0.04
140
12.5
141
0.09
142
0.0
143
25.4
144
1.0
145
0.0
146
1.0
147
0.09
 71
0.0
 72
0.0
 73
0
 74
0
 75
0
 76
0
 77
1
 78
8
170
0
171
2
172
0
173
0
174
0
175
0
176
0
177
0
178
5
270
2
271
2
272
2
273
2
274
2
275
0
280
0
281
0
282
0
283
1
284
8
285
0
286
0
287
3
288
0
340
11
341
21C
342
21C
343
21C
344
21C
  0
DIMSTYLE
105
241
100
AcDbSymbolTableRecord
100
AcDbDimStyleTableRecord
  2
DIMSTYLE_7
 70
0
  3

  4

 40
1.0
 41
17.5
 42
0.0625
 43
0.38
 44
0.18
 45
0.0
 46
0.0
 47
0.0
 48
3.0
140
12.5
141
0.09
142
0.0
143
25.4
144
1.0
145
0.0
146
0.6
147
0.09
 71
1.0
 72
0.0
 73
0
 74
0
 75
0
 76
0
 77
1
 78
8
170
0
171
2
172
0
173
0
174
0
175
0
176
0
177
0
178
5
270
2
271
2
272
2
273
2
274
2
275
0
280
0
281
0
282
0
283
1
284
8
285
0
286
0
287
3
288
0
340
11
341
21C
342
21C
343
21C
344
21C
  0
DIMSTYLE
105
242
100
AcDbSymbolTableRecord
100
AcDbDimStyleTableRecord
  2
DIMSTYLE_8
 70
0
  3

  4

 40
1.0
 41
17.5
 42
0.0625
 43
0.38
 44
0.18
 45
0.0
 46
0.0
 47
0.001
 48
0.001
140
12.5
141
0.09
142
0.0
143
25.4
144
1.0
145
0.0
146
1.0
147
0.09
 71
0.0
 72
0.0
 73
0
 74
0
 75
0
 76
0
 77
1
 78
8
170
0
171
2
172
0
173
0
174
0
175
0
176
0
177
0
178
5
270
2
271
3
272
3
273
2
274
2
275
0
280
0
281
0
282
0
283
1
284
8
285
0
286
0
287
3
288
0
340
11
341
21C
342
21C
343
21C
344
21C
  0
DIMSTYLE
105
243
100
AcDbSymbolTableRecord
100
AcDbDimStyleTableRecord
  2
DIMSTYLE_9
 70
0
  3

  4

 40
1.0
 41
17.5
 42
0.0625
 43
0.38
 44
0.18
 45
0.0
 46
0.0
 47
0.2
 48
0.2
140
12.5
141
0.09
142
0.0
143
25.4
144
1.0
145
0.0
146
1.0
147
0.09
 71
0.0
 72
0.0
 73
0
 74
0
 75
0
 76
0
 77
1
 78
8
170
0
171
2
172
0
173
0
174
0
175
0
176
0
177
0
178
5
270
2
271
2
272
2
273
2
274
2
275
0
280
0
281
0
282
0
283
1
284
8
285
0
286
0
287
3
288
0
340
11
341
21C
342
21C
343
21C
344
21C
  0
DIMSTYLE
105
244
100
AcDbSymbolTableRecord
100
AcDbDimStyleTableRecord
  2
DIMSTYLE_10
 70
0
  3

  4

 40
1.0
 41
17.5
 42
0.0625
 43
0.38
 44
0.18
 45
0.0
 46
0.0
 47
0.5
 48
0.5
140
12.5
141
0.09
142
0.0
143
25.4
144
1.0
145
0.0
146
1.0
147
0.09
 71
0.0
 72
0.0
 73
0
 74
0
 75
0
 76
0
 77
1
 78
8
170
0
171
2
172
0
173
0
174
0
175
0
176
0
177
0
178
5
270
2
271
1
272
1
273
2
274
2
275
0
280
0
281
0
282
0
283
1
284
8
285
0
286
0
287
3
288
0
340
11
341
21C
342
21C
343
21C
344
21C
  0
DIMSTYLE
105
245
100
AcDbSymbolTableRecord
100
AcDbDimStyleTableRecord
  2
DIMSTYLE_11
 70
0
  3

  4

 40
1.0
 41
17.5
 42
0.0625
 43
0.38
 44
0.18
 45
0.0
 46
0.0
 47
0.3
 48
0.3000000003
140
12.5
141
0.09
142
0.0
143
25.4
144
1.0
145
0.0
146
0.6
147
0.09
 71
1.0
 72
0.0
 73
0
 74
0
 75
0
 76
0
 77
1
 78
8
170
0
171
2
172
0
173
0
174
0
175
0
176
0
177
0
178
5
270
2
271
2
272
2
273
2
274
2
275
0
280
0
281
0
282
0
283
1
284
8
285
0
286
0
287
3
288
0
340
11
341
21C
342
21C
343
21C
344
21C
  0
DIMSTYLE
105
246
100
AcDbSymbolTableRecord
100
AcDbDimStyleTableRecord
  2
DIMSTYLE_12
 70
0
  3

  4

 40
1.0
 41
17.5
 42
0.0625
 43
0.38
 44
0.18
 45
0.0
 46
0.0
 47
0.5
 48
0.5
140
12.5
141
0.09
142
0.0
143
25.4
144
1.0
145
0.0
146
1.0
147
0.09
 71
0.0
 72
0.0
 73
0
 74
0
 75
0
 76
0
 77
1
 78
8
170
0
171
2
172
0
173
0
174
0
175
0
176
0
177
0
178
5
270
2
271
3
272
3
273
2
274
2
275
0
280
0
281
0
282
0
283
1
284
8
285
0
286
0
287
3
288
0
340
11
341
21C
342
21C
343
21C
344
21C
  0
ENDTAB
  0
ENDSEC
  0
SECTION
  2
BLOCKS
  0
BLOCK
  5
20
100
AcDbEntity
  8
0
100
AcDbBlockBegin
  2
*Model_Space
 70
0
 10
0.0
 20
0.0
 30
0.0
  3
*Model_Space
  1

  0
ENDBLK
  5
21
100
AcDbEntity
  8
0
100
AcDbBlockEnd
  0
BLOCK
  5
1C
100
AcDbEntity
  8
0
100
AcDbBlockBegin
  2
*Paper_Space
 70
0
 10
0.0
 20
0.0
 30
0.0
  3
*Paper_Space
  1

  0
ENDBLK
  5
1D
100
AcDbEntity
  8
0
100
AcDbBlockEnd
  0
BLOCK
  5
247
100
AcDbEntity
  8
0
100
AcDbBlockBegin
 62
2
  6
CONTINUOUS
  2
SYMBOL_70_BL3
 70
64
 10
1120.3293319903
 20
870.6812558272
  3
SYMBOL_70_BL3
  1

  0
LINE
  5
248
100
AcDbEntity
  8
0
100
AcDbLine
 62
2
  6
CONTINUOUS
 10
1089.0793319903
 20
878.2091442734
 11
1089.0793319903
 21
863.2091442734
  0
LINE
  5
249
100
AcDbEntity
  8
0
100
AcDbLine
 62
2
  6
CONTINUOUS
 10
1089.0793319903
 20
878.1812558272
 11
1101.5793319903
 21
870.6812558272
  0
LINE
  5
24A
100
AcDbEntity
  8
0
100
AcDbLine
 62
2
  6
CONTINUOUS
 10
1101.5793319903
 20
870.6812558272
 11
1089.0793319903
 21
863.1812558272
  0
LINE
  5
24B
100
AcDbEntity
  8
0
100
AcDbLine
 62
2
  6
CONTINUOUS
 10
1101.5793319903
 20
870.6812558272
 11
1116.5793319903
 21
870.6812558272
  0
LINE
  5
24C
100
AcDbEntity
  8
0
100
AcDbLine
 62
2
  6
CONTINUOUS
 10
1116.5793319903
 20
888.1812558272
 11
1116.5793319903
 21
853.1812558272
  0
LINE
  5
24D
100
AcDbEntity
  8
0
100
AcDbLine
 62
2
  6
CONTINUOUS
 10
1116.5793319903
 20
853.1812558272
 11
1151.5793319903
 21
853.1812558272
  0
LINE
  5
24E
100
AcDbEntity
  8
0
100
AcDbLine
 62
2
  6
CONTINUOUS
 10
1151.5793319903
 20
853.1812558272
 11
1151.5793319903
 21
888.1812558272
  0
LINE
  5
24F
100
AcDbEntity
  8
0
100
AcDbLine
 62
2
  6
CONTINUOUS
 10
1151.5793319903
 20
888.1812558272
 11
1116.5793319903
 21
888.1812558272
  0
LINE
  5
250
100
AcDbEntity
  8
0
100
AcDbLine
 62
2
  6
CONTINUOUS
 10
1089.0793319903
 20
863.6952000503
 11
1089.9359056955
 21
863.6952000503
  0
LINE
  5
251
100
AcDbEntity
  8
0
100
AcDbLine
 62
2
  6
CONTINUOUS
 10
1089.0793319903
 20
864.1952000503
 11
1090.7692390288
 21
864.1952000503
  0
LINE
  5
252
100
AcDbEntity
  8
0
100
AcDbLine
 62
2
  6
CONTINUOUS
 10
1089.0793319903
 20
864.6952000503
 11
1091.6025723621
 21
864.6952000503
  0
LINE
  5
253
100
AcDbEntity
  8
0
100
AcDbLine
 62
2
  6
CONTINUOUS
 10
1089.0793319903
 20
865.1952000503
 11
1092.4359056955
 21
865.1952000503
  0
LINE
  5
254
100
AcDbEntity
  8
0
100
AcDbLine
 62
2
  6
CONTINUOUS
 10
1089.0793319903
 20
865.6952000503
 11
1093.2692390288
 21
865.6952000503
  0
LINE
  5
255
100
AcDbEntity
  8
0
100
AcDbLine
 62
2
  6
CONTINUOUS
 10
1089.0793319903
 20
866.1952000503
 11
1094.1025723621
 21
866.1952000503
  0
LINE
  5
256
100
AcDbEntity
  8
0
100
AcDbLine
 62
2
  6
CONTINUOUS
 10
1089.0793319903
 20
866.6952000503
 11
1094.9359056955
 21
866.6952000503
  0
LINE
  5
257
100
AcDbEntity
  8
0
100
AcDbLine
 62
2
  6
CONTINUOUS
 10
1089.0793319903
 20
867.1952000503
 11
1095.7692390288
 21
867.1952000503
  0
LINE
  5
258
100
AcDbEntity
  8
0
100
AcDbLine
 62
2
  6
CONTINUOUS
 10
1089.0793319903
 20
867.6952000503
 11
1096.6025723621
 21
867.6952000503
  0
LINE
  5
259
100
AcDbEntity
  8
0
100
AcDbLine
 62
2
  6
CONTINUOUS
 10
1089.0793319903
 20
868.1952000503
 11
1097.4359056955
 21
868.1952000503
  0
LINE
  5
25A
100
AcDbEntity
  8
0
100
AcDbLine
 62
2
  6
CONTINUOUS
 10
1089.0793319903
 20
868.6952000503
 11
1098.2692390288
 21
868.6952000503
  0
LINE
  5
25B
100
AcDbEntity
  8
0
100
AcDbLine
 62
2
  6
CONTINUOUS
 10
1089.0793319903
 20
869.1952000503
 11
1099.1025723621
 21
869.1952000503
  0
LINE
  5
25C
100
AcDbEntity
  8
0
100
AcDbLine
 62
2
  6
CONTINUOUS
 10
1089.0793319903
 20
869.6952000503
 11
1099.9359056955
 21
869.6952000503
  0
LINE
  5
25D
100
AcDbEntity
  8
0
100
AcDbLine
 62
2
  6
CONTINUOUS
 10
1089.0793319903
 20
870.1952000503
 11
1100.7692390288
 21
870.1952000503
  0
LINE
  5
25E
100
AcDbEntity
  8
0
100
AcDbLine
 62
2
  6
CONTINUOUS
 10
1089.0793319903
 20
870.6952000503
 11
1101.5560916184
 21
870.6952000503
  0
LINE
  5
25F
100
AcDbEntity
  8
0
100
AcDbLine
 62
2
  6
CONTINUOUS
 10
1089.0793319903
 20
871.1952000503
 11
1100.7227582851
 21
871.1952000503
  0
LINE
  5
260
100
AcDbEntity
  8
0
100
AcDbLine
 62
2
  6
CONTINUOUS
 10
1089.0793319903
 20
871.6952000503
 11
1099.8894249518
 21
871.6952000503
  0
LINE
  5
261
100
AcDbEntity
  8
0
100
AcDbLine
 62
2
  6
CONTINUOUS
 10
1089.0793319903
 20
872.1952000503
 11
1099.0560916184
 21
872.1952000503
  0
LINE
  5
262
100
AcDbEntity
  8
0
100
AcDbLine
 62
2
  6
CONTINUOUS
 10
1089.0793319903
 20
872.6952000503
 11
1098.2227582851
 21
872.6952000503
  0
LINE
  5
263
100
AcDbEntity
  8
0
100
AcDbLine
 62
2
  6
CONTINUOUS
 10
1089.0793319903
 20
873.1952000503
 11
1097.3894249518
 21
873.1952000503
  0
LINE
  5
264
100
AcDbEntity
  8
0
100
AcDbLine
 62
2
  6
CONTINUOUS
 10
1089.0793319903
 20
873.6952000503
 11
1096.5560916184
 21
873.6952000503
  0
LINE
  5
265
100
AcDbEntity
  8
0
100
AcDbLine
 62
2
  6
CONTINUOUS
 10
1089.0793319903
 20
874.1952000503
 11
1095.7227582851
 21
874.1952000503
  0
LINE
  5
266
100
AcDbEntity
  8
0
100
AcDbLine
 62
2
  6
CONTINUOUS
 10
1089.0793319903
 20
874.6952000503
 11
1094.8894249518
 21
874.6952000503
  0
LINE
  5
267
100
AcDbEntity
  8
0
100
AcDbLine
 62
2
  6
CONTINUOUS
 10
1089.0793319903
 20
875.1952000503
 11
1094.0560916184
 21
875.1952000503
  0
LINE
  5
268
100
AcDbEntity
  8
0
100
AcDbLine
 62
2
  6
CONTINUOUS
 10
1089.0793319903
 20
875.6952000503
 11
1093.2227582851
 21
875.6952000503
  0
LINE
  5
269
100
AcDbEntity
  8
0
100
AcDbLine
 62
2
  6
CONTINUOUS
 10
1089.0793319903
 20
876.1952000503
 11
1092.3894249518
 21
876.1952000503
  0
LINE
  5
26A
100
AcDbEntity
  8
0
100
AcDbLine
 62
2
  6
CONTINUOUS
 10
1089.0793319903
 20
876.6952000503
 11
1091.5560916184
 21
876.6952000503
  0
LINE
  5
26B
100
AcDbEntity
  8
0
100
AcDbLine
 62
2
  6
CONTINUOUS
 10
1089.0793319903
 20
877.1952000503
 11
1090.7227582851
 21
877.1952000503
  0
LINE
  5
26C
100
AcDbEntity
  8
0
100
AcDbLine
 62
2
  6
CONTINUOUS
 10
1089.0793319903
 20
877.6952000503
 11
1089.8894249518
 21
877.6952000503
  0
ENDBLK
  5
26D
100
AcDbEntity
  8
0
  6
BYBLOCK
 62
0
100
AcDbBlockEnd
  0
BLOCK
  5
26E
100
AcDbEntity
  8
0
100
AcDbBlockBegin
 62
2
  6
CONTINUOUS
  2
SYMBOL_47_BL2
 70
64
 10
1355.4510261439
 20
1156.8015240848
  3
SYMBOL_47_BL2
  1

  0
LINE
  5
26F
100
AcDbEntity
  8
0
100
AcDbLine
 62
2
  6
CONTINUOUS
 10
1275.4510466137
 20
1174.3119884405
 11
1275.4510466137
 21
1139.3120002961
  0
LINE
  5
270
100
AcDbEntity
  8
0
100
AcDbLine
 62
2
  6
CONTINUOUS
 10
1275.4510466137
 20
1139.3120002961
 11
1385.4510093533
 21
1139.3120002961
  0
LINE
  5
271
100
AcDbEntity
  8
0
100
AcDbLine
 62
2
  6
CONTINUOUS
 10
1411.1604373284
 20
1139.2172648259
 11
1411.1604373284
 21
1174.3857833438
  0
LINE
  5
272
100
AcDbEntity
  8
0
100
AcDbLine
 62
2
  6
CONTINUOUS
 10
1385.4510093533
 20
1174.3119884405
 11
1275.4510466137
 21
1174.3119884405
  0
LINE
  5
273
100
AcDbEntity
  8
0
100
AcDbLine
 62
2
  6
CONTINUOUS
 10
1310.4510347581
 20
1174.3119884405
 11
1310.4510347581
 21
1139.3120002961
  0
LINE
  5
274
100
AcDbEntity
  8
0
100
AcDbLine
 62
2
  6
CONTINUOUS
 10
1385.4510093533
 20
1174.3119884405
 11
1385.4510093533
 21
1139.3120002961
  0
LINE
  5
275
100
AcDbEntity
  8
0
100
AcDbLine
 62
2
  6
CONTINUOUS
 10
1385.4510093533
 20
1174.3119884405
 11
1435.3453945074
 21
1174.3857833438
  0
LINE
  5
276
100
AcDbEntity
  8
0
100
AcDbLine
 62
2
  6
CONTINUOUS
 10
1385.3913126486
 20
1139.1116536592
 11
1435.4510056741
 21
1139.2172648259
  0
LINE
  5
277
100
AcDbEntity
  8
0
100
AcDbLine
 62
2
  6
CONTINUOUS
 10
1435.3453945074
 20
1139.3228759926
 11
1435.3453945074
 21
1174.4913945105
  0
TEXT
  5
278
100
AcDbEntity
  8
0
100
AcDbText
 62
5
  6
CONTINUOUS
 10
1282.793737318
 20
1151.6994500717
  7
TEXTSTYLE_2
 40
12.000000384
  1
h
 41
1.0
 72
0
100
AcDbText
  0
ENDBLK
  5
279
100
AcDbEntity
  8
0
  6
BYBLOCK
 62
0
100
AcDbBlockEnd
  0
BLOCK
  5
27A
100
AcDbEntity
  8
0
100
AcDbBlockBegin
 62
2
  6
CONTINUOUS
  2
SYMBOL_38_BL1
 70
64
 10
1374.0793319903
 20
1082.7745157661
  3
SYMBOL_38_BL1
  1

  0
LINE
  5
27B
100
AcDbEntity
  8
0
100
AcDbLine
 62
2
  6
CONTINUOUS
 10
1381.5932762134
 20
1051.5245157661
 11
1366.5932762134
 21
1051.5245157661
  0
LINE
  5
27C
100
AcDbEntity
  8
0
100
AcDbLine
 62
2
  6
CONTINUOUS
 10
1356.5793319903
 20
1114.0245157661
 11
1391.5793319903
 21
1114.0245157661
  0
LINE
  5
27D
100
AcDbEntity
  8
0
100
AcDbLine
 62
2
  6
CONTINUOUS
 10
1391.5793319903
 20
1114.0245157661
 11
1391.5793319903
 21
1079.0245157661
  0
LINE
  5
27E
100
AcDbEntity
  8
0
100
AcDbLine
 62
2
  6
CONTINUOUS
 10
1391.5793319903
 20
1079.0245157661
 11
1356.5793319903
 21
1079.0245157661
  0
LINE
  5
27F
100
AcDbEntity
  8
0
100
AcDbLine
 62
2
  6
CONTINUOUS
 10
1356.5793319903
 20
1079.0245157661
 11
1356.5793319903
 21
1114.0245157661
  0
LINE
  5
280
100
AcDbEntity
  8
0
100
AcDbLine
 62
2
  6
CONTINUOUS
 10
1366.5653877672
 20
1051.5245157661
 11
1374.0793319903
 21
1064.0245157661
  0
LINE
  5
281
100
AcDbEntity
  8
0
100
AcDbLine
 62
2
  6
CONTINUOUS
 10
1374.0793319903
 20
1064.0245157661
 11
1381.5653877672
 21
1051.5245157661
  0
LINE
  5
282
100
AcDbEntity
  8
0
100
AcDbLine
 62
2
  6
CONTINUOUS
 10
1374.0793319903
 20
1064.0245157661
 11
1374.0793319903
 21
1079.0245157661
  0
LINE
  5
283
100
AcDbEntity
  8
0
100
AcDbLine
 62
2
  6
CONTINUOUS
 10
1367.0793319903
 20
1051.5245157661
 11
1367.0793319903
 21
1052.3794998594
  0
LINE
  5
284
100
AcDbEntity
  8
0
100
AcDbLine
 62
2
  6
CONTINUOUS
 10
1367.5793319903
 20
1051.5245157661
 11
1367.5793319903
 21
1053.2112867099
  0
LINE
  5
285
100
AcDbEntity
  8
0
100
AcDbLine
 62
2
  6
CONTINUOUS
 10
1368.0793319903
 20
1051.5245157661
 11
1368.0793319903
 21
1054.0430735603
  0
LINE
  5
286
100
AcDbEntity
  8
0
100
AcDbLine
 62
2
  6
CONTINUOUS
 10
1368.5793319903
 20
1051.5245157661
 11
1368.5793319903
 21
1054.8748604108
  0
LINE
  5
287
100
AcDbEntity
  8
0
100
AcDbLine
 62
2
  6
CONTINUOUS
 10
1369.0793319903
 20
1051.5245157661
 11
1369.0793319903
 21
1055.7066472613
  0
LINE
  5
288
100
AcDbEntity
  8
0
100
AcDbLine
 62
2
  6
CONTINUOUS
 10
1369.5793319903
 20
1051.5245157661
 11
1369.5793319903
 21
1056.5384341118
  0
LINE
  5
289
100
AcDbEntity
  8
0
100
AcDbLine
 62
2
  6
CONTINUOUS
 10
1370.0793319903
 20
1051.5245157661
 11
1370.0793319903
 21
1057.3702209623
  0
LINE
  5
28A
100
AcDbEntity
  8
0
100
AcDbLine
 62
2
  6
CONTINUOUS
 10
1370.5793319903
 20
1051.5245157661
 11
1370.5793319903
 21
1058.2020078127
  0
LINE
  5
28B
100
AcDbEntity
  8
0
100
AcDbLine
 62
2
  6
CONTINUOUS
 10
1371.0793319903
 20
1051.5245157661
 11
1371.0793319903
 21
1059.0337946632
  0
LINE
  5
28C
100
AcDbEntity
  8
0
100
AcDbLine
 62
2
  6
CONTINUOUS
 10
1371.5793319903
 20
1051.5245157661
 11
1371.5793319903
 21
1059.8655815137
  0
LINE
  5
28D
100
AcDbEntity
  8
0
100
AcDbLine
 62
2
  6
CONTINUOUS
 10
1372.0793319903
 20
1051.5245157661
 11
1372.0793319903
 21
1060.6973683642
  0
LINE
  5
28E
100
AcDbEntity
  8
0
100
AcDbLine
 62
2
  6
CONTINUOUS
 10
1372.5793319903
 20
1051.5245157661
 11
1372.5793319903
 21
1061.5291552146
  0
LINE
  5
28F
100
AcDbEntity
  8
0
100
AcDbLine
 62
2
  6
CONTINUOUS
 10
1373.0793319903
 20
1051.5245157661
 11
1373.0793319903
 21
1062.3609420651
  0
LINE
  5
290
100
AcDbEntity
  8
0
100
AcDbLine
 62
2
  6
CONTINUOUS
 10
1373.5793319903
 20
1051.5245157661
 11
1373.5793319903
 21
1063.1927289156
  0
LINE
  5
291
100
AcDbEntity
  8
0
100
AcDbLine
 62
2
  6
CONTINUOUS
 10
1374.0793319903
 20
1051.5245157661
 11
1374.0793319903
 21
1064.0245157661
  0
LINE
  5
292
100
AcDbEntity
  8
0
100
AcDbLine
 62
2
  6
CONTINUOUS
 10
1374.5793319903
 20
1051.5245157661
 11
1374.5793319903
 21
1063.1896301886
  0
LINE
  5
293
100
AcDbEntity
  8
0
100
AcDbLine
 62
2
  6
CONTINUOUS
 10
1375.0793319903
 20
1051.5245157661
 11
1375.0793319903
 21
1062.3547446112
  0
LINE
  5
294
100
AcDbEntity
  8
0
100
AcDbLine
 62
2
  6
CONTINUOUS
 10
1375.5793319903
 20
1051.5245157661
 11
1375.5793319903
 21
1061.5198590338
  0
LINE
  5
295
100
AcDbEntity
  8
0
100
AcDbLine
 62
2
  6
CONTINUOUS
 10
1376.0793319903
 20
1051.5245157661
 11
1376.0793319903
 21
1060.6849734563
  0
LINE
  5
296
100
AcDbEntity
  8
0
100
AcDbLine
 62
2
  6
CONTINUOUS
 10
1376.5793319903
 20
1051.5245157661
 11
1376.5793319903
 21
1059.8500878789
  0
LINE
  5
297
100
AcDbEntity
  8
0
100
AcDbLine
 62
2
  6
CONTINUOUS
 10
1377.0793319903
 20
1051.5245157661
 11
1377.0793319903
 21
1059.0152023015
  0
LINE
  5
298
100
AcDbEntity
  8
0
100
AcDbLine
 62
2
  6
CONTINUOUS
 10
1377.5793319903
 20
1051.5245157661
 11
1377.5793319903
 21
1058.180316724
  0
LINE
  5
299
100
AcDbEntity
  8
0
100
AcDbLine
 62
2
  6
CONTINUOUS
 10
1378.0793319903
 20
1051.5245157661
 11
1378.0793319903
 21
1057.3454311466
  0
LINE
  5
29A
100
AcDbEntity
  8
0
100
AcDbLine
 62
2
  6
CONTINUOUS
 10
1378.5793319903
 20
1051.5245157661
 11
1378.5793319903
 21
1056.5105455692
  0
LINE
  5
29B
100
AcDbEntity
  8
0
100
AcDbLine
 62
2
  6
CONTINUOUS
 10
1379.0793319903
 20
1051.5245157661
 11
1379.0793319903
 21
1055.6756599917
  0
LINE
  5
29C
100
AcDbEntity
  8
0
100
AcDbLine
 62
2
  6
CONTINUOUS
 10
1379.5793319903
 20
1051.5245157661
 11
1379.5793319903
 21
1054.8407744143
  0
LINE
  5
29D
100
AcDbEntity
  8
0
100
AcDbLine
 62
2
  6
CONTINUOUS
 10
1380.0793319903
 20
1051.5245157661
 11
1380.0793319903
 21
1054.0058888369
  0
LINE
  5
29E
100
AcDbEntity
  8
0
100
AcDbLine
 62
2
  6
CONTINUOUS
 10
1380.5793319903
 20
1051.5245157661
 11
1380.5793319903
 21
1053.1710032594
  0
LINE
  5
29F
100
AcDbEntity
  8
0
100
AcDbLine
 62
2
  6
CONTINUOUS
 10
1381.0793319903
 20
1051.5245157661
 11
1381.0793319903
 21
1052.336117682
  0
ENDBLK
  5
2A0
100
AcDbEntity
  8
0
  6
BYBLOCK
 62
0
100
AcDbBlockEnd
  0
BLOCK
  5
2A1
100
AcDbEntity
  8
0
100
AcDbBlockBegin
 62
2
  6
CONTINUOUS
  2
SYMBOL_64_BL0
 70
64
 10
1289.3486994308
 20
839.2305619768
  3
SYMBOL_64_BL0
  1

  0
TEXT
  5
2A2
100
AcDbEntity
  8
0
100
AcDbText
 62
5
  6
CONTINUOUS
 10
1255.7772708593
 20
831.7305619768
  7
TEXTSTYLE_2
 40
15.0
  1
n
 41
1.0
 72
0
100
AcDbText
  0
TEXT
  5
2A3
100
AcDbEntity
  8
0
100
AcDbText
 62
5
  6
CONTINUOUS
 10
1275.7772708593
 20
831.7305619768
  7
STANDARD
 40
15.0
  1
    
 41
0.7857142857
 72
0
100
AcDbText
  0
TEXT
  5
2A4
100
AcDbEntity
  8
0
100
AcDbText
 62
5
  6
CONTINUOUS
 10
1219.8486994308
 20
833.2305619768
  7
TEXTSTYLE_2
 40
12.0
  1
b
 41
1.0
 72
0
100
AcDbText
  0
LINE
  5
2A5
100
AcDbEntity
  8
0
100
AcDbLine
 62
2
  6
CONTINUOUS
 10
1216.8486994308
 20
856.7305619768
 11
1216.8486994308
 21
821.7305619768
  0
LINE
  5
2A6
100
AcDbEntity
  8
0
100
AcDbLine
 62
2
  6
CONTINUOUS
 10
1216.8486994308
 20
821.7305619768
 11
1326.8486994308
 21
821.7305619768
  0
LINE
  5
2A7
100
AcDbEntity
  8
0
100
AcDbLine
 62
2
  6
CONTINUOUS
 10
1361.8486994308
 20
821.7305619768
 11
1361.8486994308
 21
856.7305619768
  0
LINE
  5
2A8
100
AcDbEntity
  8
0
100
AcDbLine
 62
2
  6
CONTINUOUS
 10
1326.8486994308
 20
856.7305619768
 11
1216.8486994308
 21
856.7305619768
  0
LINE
  5
2A9
100
AcDbEntity
  8
0
100
AcDbLine
 62
2
  6
CONTINUOUS
 10
1251.8486994308
 20
856.7305619768
 11
1251.8486994308
 21
821.7305619768
  0
LINE
  5
2AA
100
AcDbEntity
  8
0
100
AcDbLine
 62
2
  6
CONTINUOUS
 10
1326.8486994308
 20
856.7305619768
 11
1326.8486994308
 21
821.7305619768
  0
LINE
  5
2AB
100
AcDbEntity
  8
0
100
AcDbLine
 62
2
  6
CONTINUOUS
 10
1326.8486994308
 20
856.7305619768
 11
1361.8486994308
 21
856.7305619768
  0
LINE
  5
2AC
100
AcDbEntity
  8
0
100
AcDbLine
 62
2
  6
CONTINUOUS
 10
1326.8486994308
 20
821.7305619768
 11
1361.8486994308
 21
821.7305619768
  0
ENDBLK
  5
2AD
100
AcDbEntity
  8
0
  6
BYBLOCK
 62
0
100
AcDbBlockEnd
  0
BLOCK
  5
2AE
100
AcDbEntity
  8
0
100
AcDbBlockBegin
  2
_FILLED
 70
64
 10
0.0
 20
0.0
  3
_FILLED
  1

  0
SOLID
  5
2AF
100
AcDbEntity
  8
0
  6
BYBLOCK
 62
0
100
AcDbTrace
 10
0.0
 20
0.0
 11
-1.0
 21
0.125
 12
-1.0
 22
-0.125
 13
-1.0
 23
-0.125
  0
ENDBLK
  5
2B0
100
AcDbEntity
  8
0
  6
BYBLOCK
 62
0
100
AcDbBlockEnd
  0
BLOCK
  5
2B1
100
AcDbEntity
  8
ZEICHNUNGSBEMASSUNGEN
100
AcDbBlockBegin
 62
2
  6
CONTINUOUS
  2
*D0
 70
65
 10
0.0
 20
0.0
  3
*D0
  1

  0
MTEXT
  5
2B2
100
AcDbEntity
  8
ZEICHNUNGSBEMASSUNGEN
100
AcDbMText
 62
5
  6
CONTINUOUS
  7
STANDARD
 71
2
 72
1
 10
1010.7590252484
 20
1223.1495157661
 30
0.0
 11
1.0
 21
0.0
 31
0.0
 44
0.9
  1
344
 40
12.5
 41
28.5714285714
  0
LINE
  5
2B3
100
AcDbEntity
  8
ZEICHNUNGSBEMASSUNGEN
100
AcDbLine
 62
2
  6
CONTINUOUS
 10
1199.0793319903
 20
1017.0245157661
 11
1199.0793319903
 21
1215.0245157661
  0
LINE
  5
2B4
100
AcDbEntity
  8
ZEICHNUNGSBEMASSUNGEN
100
AcDbLine
 62
2
  6
CONTINUOUS
 10
855.0793319903
 20
975.9942469034
 11
855.0793319903
 21
1215.0245157661
  0
LINE
  5
2B5
100
AcDbEntity
  8
ZEICHNUNGSBEMASSUNGEN
100
AcDbLine
 62
2
  6
CONTINUOUS
 10
1199.0793319903
 20
1207.5245157661
 11
1027.0793319903
 21
1207.5245157661
  0
LINE
  5
2B6
100
AcDbEntity
  8
ZEICHNUNGSBEMASSUNGEN
100
AcDbLine
 62
2
  6
CONTINUOUS
 10
855.0793319903
 20
1207.5245157661
 11
1027.0793319903
 21
1207.5245157661
  0
INSERT
  5
2B7
100
AcDbEntity
  8
ZEICHNUNGSBEMASSUNGEN
100
AcDbBlockReference
 62
2
  6
CONTINUOUS
  2
_FILLED
 10
1199.0793319903
 20
1207.5245157661
 41
17.5
 42
17.5
 43
17.5
  0
INSERT
  5
2B8
100
AcDbEntity
  8
ZEICHNUNGSBEMASSUNGEN
100
AcDbBlockReference
 62
2
  6
CONTINUOUS
  2
_FILLED
 10
855.0793319903
 20
1207.5245157661
 41
17.5
 42
17.5
 43
17.5
 50
180.0
  0
ENDBLK
  5
2B9
100
AcDbEntity
  8
0
  6
BYBLOCK
 62
0
100
AcDbBlockEnd
  0
BLOCK
  5
2BA
100
AcDbEntity
  8
ZEICHNUNGSBEMASSUNGEN
100
AcDbBlockBegin
 62
2
  6
CONTINUOUS
  2
*D1
 70
65
 10
0.0
 20
0.0
  3
*D1
  1

  0
MTEXT
  5
2BB
100
AcDbEntity
  8
ZEICHNUNGSBEMASSUNGEN
100
AcDbMText
 62
5
  6
CONTINUOUS
  7
STANDARD
 71
2
 72
1
 10
1043.3293319903
 20
1173.1495157661
 30
0.0
 11
1.0
 21
0.0
 31
0.0
 44
0.9
  1
91.5
 40
12.5
 41
33.0357142857
  0
LINE
  5
2BC
100
AcDbEntity
  8
ZEICHNUNGSBEMASSUNGEN
100
AcDbLine
 62
2
  6
CONTINUOUS
 10
1089.0793319903
 20
1054.0245157661
 11
1089.0793319903
 21
1165.0245157661
  0
LINE
  5
2BD
100
AcDbEntity
  8
ZEICHNUNGSBEMASSUNGEN
100
AcDbLine
 62
2
  6
CONTINUOUS
 10
997.5793319903
 20
926.9625395863
 11
997.5793319903
 21
1165.0245157661
  0
LINE
  5
2BE
100
AcDbEntity
  8
ZEICHNUNGSBEMASSUNGEN
100
AcDbLine
 62
2
  6
CONTINUOUS
 10
1089.0793319903
 20
1157.5245157661
 11
1043.3293319903
 21
1157.5245157661
  0
LINE
  5
2BF
100
AcDbEntity
  8
ZEICHNUNGSBEMASSUNGEN
100
AcDbLine
 62
2
  6
CONTINUOUS
 10
997.5793319903
 20
1157.5245157661
 11
1043.3293319903
 21
1157.5245157661
  0
INSERT
  5
2C0
100
AcDbEntity
  8
ZEICHNUNGSBEMASSUNGEN
100
AcDbBlockReference
 62
2
  6
CONTINUOUS
  2
_FILLED
 10
1089.0793319903
 20
1157.5245157661
 41
17.5
 42
17.5
 43
17.5
  0
INSERT
  5
2C1
100
AcDbEntity
  8
ZEICHNUNGSBEMASSUNGEN
100
AcDbBlockReference
 62
2
  6
CONTINUOUS
  2
_FILLED
 10
997.5793319903
 20
1157.5245157661
 41
17.5
 42
17.5
 43
17.5
 50
180.0
  0
ENDBLK
  5
2C2
100
AcDbEntity
  8
0
  6
BYBLOCK
 62
0
100
AcDbBlockEnd
  0
BLOCK
  5
2C3
100
AcDbEntity
  8
0
100
AcDbBlockBegin
 62
2
  6
CONTINUOUS
  2
*D2
 70
65
 10
0.0
 20
0.0
  3
*D2
  1

  0
MTEXT
  5
2C4
100
AcDbEntity
  8
0
100
AcDbMText
 62
5
  6
CONTINUOUS
  7
TEXTSTYLE_2
 71
2
 72
1
 10
292.1959567929
 20
1209.6495157661
 30
0.0
 11
1.0
 21
0.0
 31
0.0
 44
0.9
  1
{\Fgdt;o}\Ftxt;142
 40
12.5
 41
43.9732142857
  0
LINE
  5
2C5
100
AcDbEntity
  8
0
100
AcDbLine
 62
2
  6
CONTINUOUS
 10
221.1959567929
 20
1049.8748039895
 11
221.1959567929
 21
1201.5245157661
  0
LINE
  5
2C6
100
AcDbEntity
  8
0
100
AcDbLine
 62
2
  6
CONTINUOUS
 10
363.1959567929
 20
1049.8748039895
 11
363.1959567929
 21
1201.5245157661
  0
LINE
  5
2C7
100
AcDbEntity
  8
0
100
AcDbLine
 62
2
  6
CONTINUOUS
 10
221.1959567929
 20
1194.0245157661
 11
292.1959567929
 21
1194.0245157661
  0
LINE
  5
2C8
100
AcDbEntity
  8
0
100
AcDbLine
 62
2
  6
CONTINUOUS
 10
363.1959567929
 20
1194.0245157661
 11
292.1959567929
 21
1194.0245157661
  0
INSERT
  5
2C9
100
AcDbEntity
  8
0
100
AcDbBlockReference
 62
2
  6
CONTINUOUS
  2
_FILLED
 10
221.1959567929
 20
1194.0245157661
 41
17.5
 42
17.5
 43
17.5
 50
180.0
  0
INSERT
  5
2CA
100
AcDbEntity
  8
0
100
AcDbBlockReference
 62
2
  6
CONTINUOUS
  2
_FILLED
 10
363.1959567929
 20
1194.0245157661
 41
17.5
 42
17.5
 43
17.5
  0
ENDBLK
  5
2CB
100
AcDbEntity
  8
0
  6
BYBLOCK
 62
0
100
AcDbBlockEnd
  0
BLOCK
  5
2CC
100
AcDbEntity
  8
0
100
AcDbBlockBegin
 62
2
  6
CONTINUOUS
  2
*D3
 70
65
 10
0.0
 20
0.0
  3
*D3
  1

  0
MTEXT
  5
2CD
100
AcDbEntity
  8
0
100
AcDbMText
 62
5
  6
CONTINUOUS
  7
TEXTSTYLE_2
 71
1
 72
1
 10
430.7093921508
 20
870.728052001
 30
0.0
 11
0.7088280781
 21
-0.7053812839
 31
0.0
 44
0.9
  1
{\Fgdt;n}\Ftxt;185
 40
12.5
 41
42.5595238095
  0
LINE
  5
2CE
100
AcDbEntity
  8
0
100
AcDbLine
 62
2
  6
CONTINUOUS
 10
357.7625540211
 20
921.2767470079
 11
292.1959567929
 21
986.5245157661
  0
LINE
  5
2CF
100
AcDbEntity
  8
0
100
AcDbLine
 62
2
  6
CONTINUOUS
 10
292.1959567929
 20
986.5245157661
 11
449.8551950588
 21
829.6319217342
  0
LINE
  5
2D0
100
AcDbEntity
  8
0
100
AcDbLine
 62
2
  6
CONTINUOUS
 10
226.6293595648
 20
1051.7722845243
 11
292.1959567929
 21
986.5245157661
  0
INSERT
  5
2D1
100
AcDbEntity
  8
0
100
AcDbBlockReference
 62
2
  6
CONTINUOUS
  2
_FILLED
 10
357.7625540211
 20
921.2767470079
 41
17.5
 42
17.5
 43
17.5
 50
315.1396443686
  0
INSERT
  5
2D2
100
AcDbEntity
  8
0
100
AcDbBlockReference
 62
2
  6
CONTINUOUS
  2
_FILLED
 10
226.6293595648
 20
1051.7722845243
 41
17.5
 42
17.5
 43
17.5
 50
135.1396443686
  0
ENDBLK
  5
2D3
100
AcDbEntity
  8
0
  6
BYBLOCK
 62
0
100
AcDbBlockEnd
  0
BLOCK
  5
2D4
100
AcDbEntity
  8
0
100
AcDbBlockBegin
 62
2
  6
CONTINUOUS
  2
*D4
 70
65
 10
0.0
 20
0.0
  3
*D4
  1

  0
MTEXT
  5
2D5
100
AcDbEntity
  8
0
100
AcDbMText
 62
5
  6
CONTINUOUS
  7
STANDARD
 71
3
 72
1
 10
1066.2004363805
 20
1123.1495157661
 30
0.0
 11
1.0
 21
0.0
 31
0.0
 44
0.9
  1
28
 40
12.5
 41
19.6428571429
  0
LINE
  5
2D6
100
AcDbEntity
  8
0
100
AcDbLine
 62
2
  6
CONTINUOUS
 10
1117.0793319903
 20
1054.0245157661
 11
1117.0793319903
 21
1115.0245157661
  0
LINE
  5
2D7
100
AcDbEntity
  8
0
100
AcDbLine
 62
2
  6
CONTINUOUS
 10
1089.0793319903
 20
1054.0245157661
 11
1089.0793319903
 21
1115.0245157661
  0
LINE
  5
2D8
100
AcDbEntity
  8
0
100
AcDbLine
 62
2
  6
CONTINUOUS
 10
1117.0793319903
 20
1107.5245157661
 11
1147.0793319903
 21
1107.5245157661
  0
LINE
  5
2D9
100
AcDbEntity
  8
0
100
AcDbLine
 62
2
  6
CONTINUOUS
 10
1147.0793319903
 20
1107.5245157661
 11
1103.0793319903
 21
1107.5245157661
  0
LINE
  5
2DA
100
AcDbEntity
  8
0
100
AcDbLine
 62
2
  6
CONTINUOUS
 10
1089.0793319903
 20
1107.5245157661
 11
1046.5575792377
 21
1107.5245157661
  0
LINE
  5
2DB
100
AcDbEntity
  8
0
100
AcDbLine
 62
2
  6
CONTINUOUS
 10
1046.5575792377
 20
1107.5245157661
 11
1103.0793319903
 21
1107.5245157661
  0
INSERT
  5
2DC
100
AcDbEntity
  8
0
100
AcDbBlockReference
 62
2
  6
CONTINUOUS
  2
_FILLED
 10
1117.0793319903
 20
1107.5245157661
 41
17.5
 42
17.5
 43
17.5
 50
180.0
  0
INSERT
  5
2DD
100
AcDbEntity
  8
0
100
AcDbBlockReference
 62
2
  6
CONTINUOUS
  2
_FILLED
 10
1089.0793319903
 20
1107.5245157661
 41
17.5
 42
17.5
 43
17.5
  0
ENDBLK
  5
2DE
100
AcDbEntity
  8
0
  6
BYBLOCK
 62
0
100
AcDbBlockEnd
  0
BLOCK
  5
2DF
100
AcDbEntity
  8
0
100
AcDbBlockBegin
 62
2
  6
CONTINUOUS
  2
*D5
 70
65
 10
0.0
 20
0.0
  3
*D5
  1

  0
MTEXT
  5
2E0
100
AcDbEntity
  8
0
100
AcDbMText
 62
5
  6
CONTINUOUS
  7
TEXTSTYLE_2
 71
2
 72
1
 10
1358.4543319903
 20
982.2027196669
 30
0.0
 11
0.0
 21
1.0
 31
0.0
 44
0.9
  1
{\Fgdt;n}\Ftxt;130
 40
12.5
 41
42.5595238095
  0
LINE
  5
2E1
100
AcDbEntity
  8
0
100
AcDbLine
 62
2
  6
CONTINUOUS
 10
1091.5793319903
 20
921.5245157661
 11
1244.6866304878
 21
921.5245157661
  0
LINE
  5
2E2
100
AcDbEntity
  8
0
100
AcDbLine
 62
2
  6
CONTINUOUS
 10
1372.5777368293
 20
921.5245157661
 11
1381.5793319903
 21
921.5245157661
  0
LINE
  5
2E3
100
AcDbEntity
  8
0
100
AcDbLine
 62
2
  6
CONTINUOUS
 10
1091.5793319903
 20
1051.5245157661
 11
1381.5793319903
 21
1051.5245157661
  0
LINE
  5
2E4
100
AcDbEntity
  8
0
100
AcDbLine
 62
2
  6
CONTINUOUS
 10
1374.0793319903
 20
921.5245157661
 11
1374.0793319903
 21
986.5245157661
  0
LINE
  5
2E5
100
AcDbEntity
  8
0
100
AcDbLine
 62
2
  6
CONTINUOUS
 10
1374.0793319903
 20
1051.5245157661
 11
1374.0793319903
 21
986.5245157661
  0
INSERT
  5
2E6
100
AcDbEntity
  8
0
100
AcDbBlockReference
 62
2
  6
CONTINUOUS
  2
_FILLED
 10
1374.0793319903
 20
921.5245157661
 41
17.5
 42
17.5
 43
17.5
 50
270.0
  0
INSERT
  5
2E7
100
AcDbEntity
  8
0
100
AcDbBlockReference
 62
2
  6
CONTINUOUS
  2
_FILLED
 10
1374.0793319903
 20
1051.5245157661
 41
17.5
 42
17.5
 43
17.5
 50
90.0
  0
ENDBLK
  5
2E8
100
AcDbEntity
  8
0
  6
BYBLOCK
 62
0
100
AcDbBlockEnd
  0
BLOCK
  5
2E9
100
AcDbEntity
  8
0
100
AcDbBlockBegin
 62
2
  6
CONTINUOUS
  2
*D6
 70
65
 10
0.0
 20
0.0
  3
*D6
  1

  0
TEXT
  5
2EA
100
AcDbEntity
  8
0
100
AcDbText
 62
5
  6
CONTINUOUS
 10
1317.7946657166
 20
962.2039871873
  7
TEXTSTYLE_2
 40
12.5
  1
n
 50
89.906592694
 41
1.0
 72
1
 11
1317.8082512525
 21
970.5373094466
100
AcDbText
  0
TEXT
  5
2EB
100
AcDbEntity
  8
0
100
AcDbText
 62
5
  6
CONTINUOUS
 10
1317.8218367885
 20
978.870631706
  7
STANDARD
 40
12.5
  1
70
 50
89.906592694
 41
0.7857142857
 72
1
 11
1317.837848313
 21
988.6920472259
100
AcDbText
  0
TEXT
  5
2EC
100
AcDbEntity
  8
0
100
AcDbText
 62
5
  6
CONTINUOUS
 10
1310.3538698041
 20
998.5256897281
  7
TEXTSTYLE_3
 40
7.5
  1
 0
 50
89.906592694
 41
0.7857142857
 72
1
 11
1310.3634767188
 21
1004.4185390401
100
AcDbText
  0
TEXT
  5
2ED
100
AcDbEntity
  8
0
100
AcDbText
 62
5
  6
CONTINUOUS
 10
1320.3538565153
 20
998.509387085
  7
TEXTSTYLE_3
 40
7.5
  1
-3
 50
89.906592694
 41
0.7142857143
 72
1
 11
1320.3625900741
 21
1003.8665228231
100
AcDbText
  0
LINE
  5
2EE
100
AcDbEntity
  8
0
100
AcDbLine
 62
2
  6
CONTINUOUS
 10
1121.5793319903
 20
1021.5172260778
 11
1331.640822079
 21
1021.174769872
  0
LINE
  5
2EF
100
AcDbEntity
  8
0
100
AcDbLine
 62
2
  6
CONTINUOUS
 10
1121.5793319903
 20
951.517133056
 11
1250.7581479011
 21
951.3065371626
  0
LINE
  5
2F0
100
AcDbEntity
  8
0
100
AcDbLine
 62
2
  6
CONTINUOUS
 10
1324.1408320456
 20
1021.1869968543
 11
1324.0837727947
 21
986.1870433652
  0
LINE
  5
2F1
100
AcDbEntity
  8
0
100
AcDbLine
 62
2
  6
CONTINUOUS
 10
1324.0267135437
 20
951.1870898761
 11
1324.0837727947
 21
986.1870433652
  0
INSERT
  5
2F2
100
AcDbEntity
  8
0
100
AcDbBlockReference
 62
2
  6
CONTINUOUS
  2
_FILLED
 10
1324.1408320456
 20
1021.1869968543
 41
17.5
 42
17.5
 43
17.5
 50
89.906592694
  0
INSERT
  5
2F3
100
AcDbEntity
  8
0
100
AcDbBlockReference
 62
2
  6
CONTINUOUS
  2
_FILLED
 10
1324.0267135437
 20
951.1870898761
 41
17.5
 42
17.5
 43
17.5
 50
269.906592694
  0
ENDBLK
  5
2F4
100
AcDbEntity
  8
0
  6
BYBLOCK
 62
0
100
AcDbBlockEnd
  0
BLOCK
  5
2F5
100
AcDbEntity
  8
0
100
AcDbBlockBegin
 62
2
  6
CONTINUOUS
  2
*D7
 70
65
 10
0.0
 20
0.0
  3
*D7
  1

  0
MTEXT
  5
2F6
100
AcDbEntity
  8
0
100
AcDbMText
 62
5
  6
CONTINUOUS
  7
STANDARD
 71
2
 72
1
 10
1159.0793319903
 20
1148.1495157661
 30
0.0
 11
1.0
 21
0.0
 31
0.0
 44
0.9
  1
80
 40
12.5
 41
19.6428571429
  0
LINE
  5
2F7
100
AcDbEntity
  8
0
100
AcDbLine
 62
2
  6
CONTINUOUS
 10
1119.0793319903
 20
1024.0245157661
 11
1119.0793319903
 21
1140.0245157661
  0
LINE
  5
2F8
100
AcDbEntity
  8
0
100
AcDbLine
 62
2
  6
CONTINUOUS
 10
1199.0793319903
 20
1017.0245157661
 11
1199.0793319903
 21
1140.0245157661
  0
LINE
  5
2F9
100
AcDbEntity
  8
0
100
AcDbLine
 62
2
  6
CONTINUOUS
 10
1119.0793319903
 20
1132.5245157661
 11
1159.0793319903
 21
1132.5245157661
  0
LINE
  5
2FA
100
AcDbEntity
  8
0
100
AcDbLine
 62
2
  6
CONTINUOUS
 10
1199.0793319903
 20
1132.5245157661
 11
1159.0793319903
 21
1132.5245157661
  0
INSERT
  5
2FB
100
AcDbEntity
  8
0
100
AcDbBlockReference
 62
2
  6
CONTINUOUS
  2
_FILLED
 10
1119.0793319903
 20
1132.5245157661
 41
17.5
 42
17.5
 43
17.5
 50
180.0
  0
INSERT
  5
2FC
100
AcDbEntity
  8
0
100
AcDbBlockReference
 62
2
  6
CONTINUOUS
  2
_FILLED
 10
1199.0793319903
 20
1132.5245157661
 41
17.5
 42
17.5
 43
17.5
  0
ENDBLK
  5
2FD
100
AcDbEntity
  8
0
  6
BYBLOCK
 62
0
100
AcDbBlockEnd
  0
BLOCK
  5
2FE
100
AcDbEntity
  8
0
100
AcDbBlockBegin
 62
2
  6
CONTINUOUS
  2
*D8
 70
65
 10
0.0
 20
0.0
  3
*D8
  1

  0
MTEXT
  5
2FF
100
AcDbEntity
  8
0
100
AcDbMText
 62
5
  6
CONTINUOUS
  7
TEXTSTYLE_2
 71
3
 72
1
 10
1258.4543319903
 20
911.5245157661
 30
0.0
 11
0.0
 21
1.0
 31
0.0
 44
0.9
  1
{\Fgdt;n}\Ftxt;40
 40
12.5
 41
36.3095238095
  0
LINE
  5
300
100
AcDbEntity
  8
0
100
AcDbLine
 62
2
  6
CONTINUOUS
 10
1201.5793319903
 20
966.5245157661
 11
1281.5793319903
 21
966.5245157661
  0
LINE
  5
301
100
AcDbEntity
  8
0
100
AcDbLine
 62
2
  6
CONTINUOUS
 10
1201.5793319903
 20
1006.5245157661
 11
1281.5793319903
 21
1006.5245157661
  0
LINE
  5
302
100
AcDbEntity
  8
0
100
AcDbLine
 62
2
  6
CONTINUOUS
 10
1274.0793319903
 20
966.5245157661
 11
1274.0793319903
 21
986.5245157661
  0
LINE
  5
303
100
AcDbEntity
  8
0
100
AcDbLine
 62
2
  6
CONTINUOUS
 10
1274.0793319903
 20
986.5245157661
 11
1274.0793319903
 21
875.2149919565
  0
LINE
  5
304
100
AcDbEntity
  8
0
100
AcDbLine
 62
2
  6
CONTINUOUS
 10
1274.0793319903
 20
1006.5245157661
 11
1274.0793319903
 21
986.5245157661
  0
INSERT
  5
305
100
AcDbEntity
  8
0
100
AcDbBlockReference
 62
2
  6
CONTINUOUS
  2
_FILLED
 10
1274.0793319903
 20
966.5245157661
 41
17.5
 42
17.5
 43
17.5
 50
270.0
  0
INSERT
  5
306
100
AcDbEntity
  8
0
100
AcDbBlockReference
 62
2
  6
CONTINUOUS
  2
_FILLED
 10
1274.0793319903
 20
1006.5245157661
 41
17.5
 42
17.5
 43
17.5
 50
90.0
  0
ENDBLK
  5
307
100
AcDbEntity
  8
0
  6
BYBLOCK
 62
0
100
AcDbBlockEnd
  0
BLOCK
  5
308
100
AcDbEntity
  8
0
100
AcDbBlockBegin
 62
2
  6
CONTINUOUS
  2
*D9
 70
65
 10
0.0
 20
0.0
  3
*D9
  1

  0
MTEXT
  5
309
100
AcDbEntity
  8
0
100
AcDbMText
 62
5
  6
CONTINUOUS
  7
STANDARD
 71
1
 72
1
 10
451.4644108316
 20
1079.9400512541
 30
0.0
 11
0.7071067812
 21
-0.7071067812
 31
0.0
 44
0.9
  1
11
 40
12.5
 41
14.2857142857
  0
LINE
  5
30A
100
AcDbEntity
  8
0
100
AcDbLine
 62
2
  6
CONTINUOUS
 10
358.2230742653
 20
1044.7734586454
 11
416.6817962557
 21
1103.2321806358
  0
LINE
  5
30B
100
AcDbEntity
  8
0
100
AcDbLine
 62
2
  6
CONTINUOUS
 10
350.693790323
 20
1052.8005238893
 11
408.9036216626
 21
1111.0103552288
  0
LINE
  5
30C
100
AcDbEntity
  8
0
100
AcDbLine
 62
2
  6
CONTINUOUS
 10
411.3784953968
 20
1097.9288797769
 11
450.5173928211
 21
1058.7899823525
  0
LINE
  5
30D
100
AcDbEntity
  8
0
100
AcDbLine
 62
2
  6
CONTINUOUS
 10
450.5173928211
 20
1058.7899823525
 11
407.4894081002
 21
1101.8179670734
  0
LINE
  5
30E
100
AcDbEntity
  8
0
100
AcDbLine
 62
2
  6
CONTINUOUS
 10
403.6003208037
 20
1105.7070543699
 11
382.3871173681
 21
1126.9202578055
  0
LINE
  5
30F
100
AcDbEntity
  8
0
100
AcDbLine
 62
2
  6
CONTINUOUS
 10
382.3871173681
 20
1126.9202578055
 11
407.4894081002
 21
1101.8179670734
  0
INSERT
  5
310
100
AcDbEntity
  8
0
100
AcDbBlockReference
 62
2
  6
CONTINUOUS
  2
_FILLED
 10
411.3784953968
 20
1097.9288797769
 41
17.5
 42
17.5
 43
17.5
 50
135.0
  0
INSERT
  5
311
100
AcDbEntity
  8
0
100
AcDbBlockReference
 62
2
  6
CONTINUOUS
  2
_FILLED
 10
403.6003208037
 20
1105.7070543699
 41
17.5
 42
17.5
 43
17.5
 50
315.0
  0
ENDBLK
  5
312
100
AcDbEntity
  8
0
  6
BYBLOCK
 62
0
100
AcDbBlockEnd
  0
BLOCK
  5
313
100
AcDbEntity
  8
ZEICHNUNGSBEMASSUNGEN
100
AcDbBlockBegin
 62
2
  6
CONTINUOUS
  2
*D10
 70
65
 10
0.0
 20
0.0
  3
*D10
  1

  0
MTEXT
  5
314
100
AcDbEntity
  8
ZEICHNUNGSBEMASSUNGEN
100
AcDbMText
 62
5
  6
CONTINUOUS
  7
STANDARD
 71
2
 72
1
 10
1144.0793319903
 20
1173.1495157661
 30
0.0
 11
1.0
 21
0.0
 31
0.0
 44
0.9
  1
110
 40
12.5
 41
24.1071428571
  0
LINE
  5
315
100
AcDbEntity
  8
ZEICHNUNGSBEMASSUNGEN
100
AcDbLine
 62
2
  6
CONTINUOUS
 10
1199.0793319903
 20
1017.0245157661
 11
1199.0793319903
 21
1165.0245157661
  0
LINE
  5
316
100
AcDbEntity
  8
ZEICHNUNGSBEMASSUNGEN
100
AcDbLine
 62
2
  6
CONTINUOUS
 10
1089.0793319903
 20
1054.0245157661
 11
1089.0793319903
 21
1165.0245157661
  0
LINE
  5
317
100
AcDbEntity
  8
ZEICHNUNGSBEMASSUNGEN
100
AcDbLine
 62
2
  6
CONTINUOUS
 10
1199.0793319903
 20
1157.5245157661
 11
1144.0793319903
 21
1157.5245157661
  0
LINE
  5
318
100
AcDbEntity
  8
ZEICHNUNGSBEMASSUNGEN
100
AcDbLine
 62
2
  6
CONTINUOUS
 10
1089.0793319903
 20
1157.5245157661
 11
1144.0793319903
 21
1157.5245157661
  0
INSERT
  5
319
100
AcDbEntity
  8
ZEICHNUNGSBEMASSUNGEN
100
AcDbBlockReference
 62
2
  6
CONTINUOUS
  2
_FILLED
 10
1199.0793319903
 20
1157.5245157661
 41
17.5
 42
17.5
 43
17.5
  0
INSERT
  5
31A
100
AcDbEntity
  8
ZEICHNUNGSBEMASSUNGEN
100
AcDbBlockReference
 62
2
  6
CONTINUOUS
  2
_FILLED
 10
1089.0793319903
 20
1157.5245157661
 41
17.5
 42
17.5
 43
17.5
 50
180.0
  0
ENDBLK
  5
31B
100
AcDbEntity
  8
0
  6
BYBLOCK
 62
0
100
AcDbBlockEnd
  0
BLOCK
  5
31C
100
AcDbEntity
  8
ZEICHNUNGSBEMASSUNGEN
100
AcDbBlockBegin
 62
2
  6
CONTINUOUS
  2
*D11
 70
65
 10
0.0
 20
0.0
  3
*D11
  1

  0
MTEXT
  5
31D
100
AcDbEntity
  8
ZEICHNUNGSBEMASSUNGEN
100
AcDbMText
 62
5
  6
CONTINUOUS
  7
STANDARD
 71
2
 72
1
 10
1126.6189375737
 20
917.5049793599
 30
0.0
 11
0.223374835
 21
0.9747326213
 31
0.0
 44
0.9
  1
5\Fgdt;{\Fgdt;~}
 40
12.5
 41
17.2619047619
  0
LINE
  5
31E
100
AcDbEntity
  8
ZEICHNUNGSBEMASSUNGEN
100
AcDbLine
 62
2
  6
CONTINUOUS
 10
1116.5793314442
 20
921.5245157661
 11
1121.1280607923
 21
921.5245157661
  0
LINE
  5
31F
100
AcDbEntity
  8
ZEICHNUNGSBEMASSUNGEN
100
AcDbLine
 62
2
  6
CONTINUOUS
 10
1146.7761200169
 20
921.5245157661
 11
1165.8236134482
 21
921.5245157661
  0
LINE
  5
320
100
AcDbEntity
  8
ZEICHNUNGSBEMASSUNGEN
100
AcDbLine
 62
2
  6
CONTINUOUS
 10
1147.5473855749
 20
924.8900591545
 11
1165.6076833612
 21
926.4701298351
  0
ARC
  5
321
100
AcDbEntity
  8
ZEICHNUNGSBEMASSUNGEN
100
AcDbCircle
 62
2
  6
CONTINUOUS
 10
1109.0790331449
 20
921.5245157661
 40
49.2445803033
100
AcDbArc
 50
347.0926689977
 51
360.0
  0
ARC
  5
322
100
AcDbEntity
  8
ZEICHNUNGSBEMASSUNGEN
100
AcDbCircle
 62
2
  6
CONTINUOUS
 10
1109.0790331449
 20
921.5245157661
 40
49.2445803033
100
AcDbArc
 50
4.999997999
 51
39.904821531
  0
ARC
  5
323
100
AcDbEntity
  8
ZEICHNUNGSBEMASSUNGEN
100
AcDbCircle
 62
2
  6
CONTINUOUS
 10
1109.0790331449
 20
921.5245157661
 40
49.2445803033
100
AcDbArc
 50
0.0
 51
4.999997999
  0
SOLID
  5
324
100
AcDbEntity
  8
ZEICHNUNGSBEMASSUNGEN
100
AcDbTrace
 62
2
  6
CONTINUOUS
 10
1157.3835294829
 20
903.9134000039
 11
1158.3236134482
 21
921.5245157661
 12
1153.0774112634
 22
904.6866857727
 13
1153.0774112634
 23
904.6866857727
  0
SOLID
  5
325
100
AcDbEntity
  8
ZEICHNUNGSBEMASSUNGEN
100
AcDbTrace
 62
2
  6
CONTINUOUS
 10
1151.4424712916
 20
942.132982578
 11
1158.1362231027
 21
925.8164620254
 12
1155.6648071757
 22
943.2786285452
 13
1155.6648071757
 23
943.2786285452
  0
ENDBLK
  5
326
100
AcDbEntity
  8
0
  6
BYBLOCK
 62
0
100
AcDbBlockEnd
  0
BLOCK
  5
327
100
AcDbEntity
  8
ZEICHNUNGSBEMASSUNGEN
100
AcDbBlockBegin
 62
2
  6
CONTINUOUS
  2
*D12
 70
65
 10
0.0
 20
0.0
  3
*D12
  1

  0
MTEXT
  5
328
100
AcDbEntity
  8
ZEICHNUNGSBEMASSUNGEN
100
AcDbMText
 62
5
  6
CONTINUOUS
  7
STANDARD
 71
3
 72
1
 10
1051.244395734
 20
856.1495157661
 30
0.0
 11
1.0
 21
0.0
 31
0.0
 44
0.9
  1
12
 40
12.5
 41
16.9642857143
  0
LINE
  5
329
100
AcDbEntity
  8
ZEICHNUNGSBEMASSUNGEN
100
AcDbLine
 62
2
  6
CONTINUOUS
 10
1077.0793319903
 20
910.5245157661
 11
1077.0793319903
 21
833.0245157661
  0
LINE
  5
32A
100
AcDbEntity
  8
ZEICHNUNGSBEMASSUNGEN
100
AcDbLine
 62
2
  6
CONTINUOUS
 10
1089.0793319903
 20
910.5245157661
 11
1089.0793319903
 21
833.0245157661
  0
LINE
  5
32B
100
AcDbEntity
  8
ZEICHNUNGSBEMASSUNGEN
100
AcDbLine
 62
2
  6
CONTINUOUS
 10
1077.0793319903
 20
840.5245157661
 11
1034.2801100198
 21
840.5245157661
  0
LINE
  5
32C
100
AcDbEntity
  8
ZEICHNUNGSBEMASSUNGEN
100
AcDbLine
 62
2
  6
CONTINUOUS
 10
1034.2801100198
 20
840.5245157661
 11
1083.0793319903
 21
840.5245157661
  0
LINE
  5
32D
100
AcDbEntity
  8
ZEICHNUNGSBEMASSUNGEN
100
AcDbLine
 62
2
  6
CONTINUOUS
 10
1089.0793319903
 20
840.5245157661
 11
1119.0793319903
 21
840.5245157661
  0
LINE
  5
32E
100
AcDbEntity
  8
ZEICHNUNGSBEMASSUNGEN
100
AcDbLine
 62
2
  6
CONTINUOUS
 10
1119.0793319903
 20
840.5245157661
 11
1083.0793319903
 21
840.5245157661
  0
INSERT
  5
32F
100
AcDbEntity
  8
ZEICHNUNGSBEMASSUNGEN
100
AcDbBlockReference
 62
2
  6
CONTINUOUS
  2
_FILLED
 10
1077.0793319903
 20
840.5245157661
 41
17.5
 42
17.5
 43
17.5
  0
INSERT
  5
330
100
AcDbEntity
  8
ZEICHNUNGSBEMASSUNGEN
100
AcDbBlockReference
 62
2
  6
CONTINUOUS
  2
_FILLED
 10
1089.0793319903
 20
840.5245157661
 41
17.5
 42
17.5
 43
17.5
 50
180.0
  0
ENDBLK
  5
331
100
AcDbEntity
  8
0
  6
BYBLOCK
 62
0
100
AcDbBlockEnd
  0
BLOCK
  5
332
100
AcDbEntity
  8
0
100
AcDbBlockBegin
 62
2
  6
CONTINUOUS
  2
*D13
 70
65
 10
0.0
 20
0.0
  3
*D13
  1

  0
TEXT
  5
333
100
AcDbEntity
  8
0
100
AcDbText
 62
5
  6
CONTINUOUS
 10
452.5871076895
 20
940.0247598212
  7
STANDARD
 40
12.5
  1
 
 50
-18.3125117383
 41
0.7857142857
 72
0
100
AcDbText
  0
TEXT
  5
334
100
AcDbEntity
  8
0
100
AcDbText
 62
5
  6
CONTINUOUS
 10
461.9111485553
 20
936.938869169
  7
TEXTSTYLE_2
 40
12.5
  1
n
 50
-18.3125117383
 41
1.0
 72
0
100
AcDbText
  0
TEXT
  5
335
100
AcDbEntity
  8
0
100
AcDbText
 62
5
  6
CONTINUOUS
 10
477.7337633578
 20
931.702206244
  7
STANDARD
 40
12.5
  1
165
 50
-18.3125117383
 41
0.6904761905
 72
0
100
AcDbText
  0
TEXT
  5
336
100
AcDbEntity
  8
0
100
AcDbText
 62
5
  6
CONTINUOUS
 10
504.6718239565
 20
930.6868530038
  7
TEXTSTYLE_3
 40
7.5
  1
+0.3
 50
-18.3125117383
 41
0.6964285714
 72
0
100
AcDbText
  0
TEXT
  5
337
100
AcDbEntity
  8
0
100
AcDbText
 62
5
  6
CONTINUOUS
 10
501.5298262015
 20
921.1932841223
  7
TEXTSTYLE_3
 40
7.5
  1
-0.3
 50
-18.3125117383
 41
0.6964285714
 72
0
100
AcDbText
  0
LINE
  5
338
100
AcDbEntity
  8
0
100
AcDbLine
 62
2
  6
CONTINUOUS
 10
370.5179000653
 20
960.6030342875
 11
292.1959567929
 21
986.5245157661
  0
LINE
  5
339
100
AcDbEntity
  8
0
100
AcDbLine
 62
2
  6
CONTINUOUS
 10
292.1959567929
 20
986.5245157661
 11
520.1863548851
 21
911.068664768
  0
LINE
  5
33A
100
AcDbEntity
  8
0
100
AcDbLine
 62
2
  6
CONTINUOUS
 10
213.8740135206
 20
1012.4459972446
 11
292.1959567929
 21
986.5245157661
  0
INSERT
  5
33B
100
AcDbEntity
  8
0
100
AcDbBlockReference
 62
2
  6
CONTINUOUS
  2
_FILLED
 10
370.5179000653
 20
960.6030342875
 41
17.5
 42
17.5
 43
17.5
 50
341.6874882617
  0
INSERT
  5
33C
100
AcDbEntity
  8
0
100
AcDbBlockReference
 62
2
  6
CONTINUOUS
  2
_FILLED
 10
213.8740135206
 20
1012.4459972446
 41
17.5
 42
17.5
 43
17.5
 50
161.6874882617
  0
ENDBLK
  5
33D
100
AcDbEntity
  8
0
  6
BYBLOCK
 62
0
100
AcDbBlockEnd
  0
BLOCK
  5
33E
100
AcDbEntity
  8
ZEICHNUNGSBEMASSUNGEN
100
AcDbBlockBegin
 62
2
  6
CONTINUOUS
  2
*D14
 70
65
 10
0.0
 20
0.0
  3
*D14
  1

  0
MTEXT
  5
33F
100
AcDbEntity
  8
ZEICHNUNGSBEMASSUNGEN
100
AcDbMText
 62
5
  6
CONTINUOUS
  7
STANDARD
 71
3
 72
1
 10
1060.531232991
 20
1098.1495157661
 30
0.0
 11
1.0
 21
0.0
 31
0.0
 44
0.9
  1
20
 40
12.5
 41
19.6428571429
  0
LINE
  5
340
100
AcDbEntity
  8
ZEICHNUNGSBEMASSUNGEN
100
AcDbLine
 62
2
  6
CONTINUOUS
 10
1089.0793319903
 20
1054.0245157661
 11
1089.0793319903
 21
1090.0245157661
  0
LINE
  5
341
100
AcDbEntity
  8
ZEICHNUNGSBEMASSUNGEN
100
AcDbLine
 62
2
  6
CONTINUOUS
 10
1109.0792722349
 20
1054.0245157661
 11
1109.0792722349
 21
1090.0245157661
  0
LINE
  5
342
100
AcDbEntity
  8
ZEICHNUNGSBEMASSUNGEN
100
AcDbLine
 62
2
  6
CONTINUOUS
 10
1089.0793319903
 20
1082.5245157661
 11
1040.8883758482
 21
1082.5245157661
  0
LINE
  5
343
100
AcDbEntity
  8
ZEICHNUNGSBEMASSUNGEN
100
AcDbLine
 62
2
  6
CONTINUOUS
 10
1040.8883758482
 20
1082.5245157661
 11
1099.0793021126
 21
1082.5245157661
  0
LINE
  5
344
100
AcDbEntity
  8
ZEICHNUNGSBEMASSUNGEN
100
AcDbLine
 62
2
  6
CONTINUOUS
 10
1109.0792722349
 20
1082.5245157661
 11
1139.0792722349
 21
1082.5245157661
  0
LINE
  5
345
100
AcDbEntity
  8
ZEICHNUNGSBEMASSUNGEN
100
AcDbLine
 62
2
  6
CONTINUOUS
 10
1139.0792722349
 20
1082.5245157661
 11
1099.0793021126
 21
1082.5245157661
  0
INSERT
  5
346
100
AcDbEntity
  8
ZEICHNUNGSBEMASSUNGEN
100
AcDbBlockReference
 62
2
  6
CONTINUOUS
  2
_FILLED
 10
1089.0793319903
 20
1082.5245157661
 41
17.5
 42
17.5
 43
17.5
  0
INSERT
  5
347
100
AcDbEntity
  8
ZEICHNUNGSBEMASSUNGEN
100
AcDbBlockReference
 62
2
  6
CONTINUOUS
  2
_FILLED
 10
1109.0792722349
 20
1082.5245157661
 41
17.5
 42
17.5
 43
17.5
 50
180.0
  0
ENDBLK
  5
348
100
AcDbEntity
  8
0
  6
BYBLOCK
 62
0
100
AcDbBlockEnd
  0
BLOCK
  5
349
100
AcDbEntity
  8
0
100
AcDbBlockBegin
 62
2
  6
CONTINUOUS
  2
*D15
 70
65
 10
0.0
 20
0.0
  3
*D15
  1

  0
MTEXT
  5
34A
100
AcDbEntity
  8
0
100
AcDbMText
 62
5
  6
CONTINUOUS
  7
STANDARD
 71
2
 72
1
 10
904.8293319903
 20
1142.1495157661
 30
0.0
 11
1.0
 21
0.0
 31
0.0
 44
0.9
  1
99.5
 40
12.5
 41
35.7142857143
  0
LINE
  5
34B
100
AcDbEntity
  8
0
100
AcDbLine
 62
2
  6
CONTINUOUS
 10
954.5793319903
 20
1109.0245157661
 11
954.5793319903
 21
1134.0245157661
  0
LINE
  5
34C
100
AcDbEntity
  8
0
100
AcDbLine
 62
2
  6
CONTINUOUS
 10
855.0793319903
 20
1109.0245157661
 11
855.0793319903
 21
1134.0245157661
  0
LINE
  5
34D
100
AcDbEntity
  8
0
100
AcDbLine
 62
2
  6
CONTINUOUS
 10
954.5793319903
 20
1126.5245157661
 11
904.8293319903
 21
1126.5245157661
  0
LINE
  5
34E
100
AcDbEntity
  8
0
100
AcDbLine
 62
2
  6
CONTINUOUS
 10
855.0793319903
 20
1126.5245157661
 11
904.8293319903
 21
1126.5245157661
  0
INSERT
  5
34F
100
AcDbEntity
  8
0
100
AcDbBlockReference
 62
2
  6
CONTINUOUS
  2
_FILLED
 10
954.5793319903
 20
1126.5245157661
 41
17.5
 42
17.5
 43
17.5
  0
INSERT
  5
350
100
AcDbEntity
  8
0
100
AcDbBlockReference
 62
2
  6
CONTINUOUS
  2
_FILLED
 10
855.0793319903
 20
1126.5245157661
 41
17.5
 42
17.5
 43
17.5
 50
180.0
  0
ENDBLK
  5
351
100
AcDbEntity
  8
0
  6
BYBLOCK
 62
0
100
AcDbBlockEnd
  0
BLOCK
  5
352
100
AcDbEntity
  8
0
100
AcDbBlockBegin
 62
2
  6
CONTINUOUS
  2
*D16
 70
65
 10
0.0
 20
0.0
  3
*D16
  1

  0
MTEXT
  5
353
100
AcDbEntity
  8
0
100
AcDbMText
 62
5
  6
CONTINUOUS
  7
TEXTSTYLE_2
 71
2
 72
1
 10
1799.5159869559
 20
1182.1495157661
 30
0.0
 11
1.0
 21
0.0
 31
0.0
 44
0.9
  1
{\Fgdt;o}\Ftxt;240
 40
12.5
 41
46.6517857143
  0
LINE
  5
354
100
AcDbEntity
  8
0
100
AcDbLine
 62
2
  6
CONTINUOUS
 10
1679.5159869559
 20
1082.1916861754
 11
1679.5159869559
 21
1174.0245157661
  0
LINE
  5
355
100
AcDbEntity
  8
0
100
AcDbLine
 62
2
  6
CONTINUOUS
 10
1919.5159869559
 20
1082.0153030749
 11
1919.5159869559
 21
1174.0245157661
  0
LINE
  5
356
100
AcDbEntity
  8
0
100
AcDbLine
 62
2
  6
CONTINUOUS
 10
1679.5159869559
 20
1166.5245157661
 11
1799.5159869559
 21
1166.5245157661
  0
LINE
  5
357
100
AcDbEntity
  8
0
100
AcDbLine
 62
2
  6
CONTINUOUS
 10
1919.5159869559
 20
1166.5245157661
 11
1799.5159869559
 21
1166.5245157661
  0
INSERT
  5
358
100
AcDbEntity
  8
0
100
AcDbBlockReference
 62
2
  6
CONTINUOUS
  2
_FILLED
 10
1679.5159869559
 20
1166.5245157661
 41
17.5
 42
17.5
 43
17.5
 50
180.0
  0
INSERT
  5
359
100
AcDbEntity
  8
0
100
AcDbBlockReference
 62
2
  6
CONTINUOUS
  2
_FILLED
 10
1919.5159869559
 20
1166.5245157661
 41
17.5
 42
17.5
 43
17.5
  0
ENDBLK
  5
35A
100
AcDbEntity
  8
0
  6
BYBLOCK
 62
0
100
AcDbBlockEnd
  0
BLOCK
  5
35B
100
AcDbEntity
  8
0
100
AcDbBlockBegin
 62
2
  6
CONTINUOUS
  2
*D17
 70
65
 10
0.0
 20
0.0
  3
*D17
  1

  0
MTEXT
  5
35C
100
AcDbEntity
  8
0
100
AcDbMText
 62
5
  6
CONTINUOUS
  7
TEXTSTYLE_2
 71
3
 72
1
 10
1653.2057972224
 20
883.8025936776
 30
0.0
 11
0.7650756574
 21
0.6439403998
 31
0.0
 44
0.9
  1
{\Fgdt;n}\Ftxt;300
 40
12.5
 41
45.2380952381
  0
LINE
  5
35D
100
AcDbEntity
  8
0
100
AcDbLine
 62
2
  6
CONTINUOUS
 10
1684.7546383481
 20
889.9334557982
 11
1799.5159869559
 21
986.5245157661
  0
LINE
  5
35E
100
AcDbEntity
  8
0
100
AcDbLine
 62
2
  6
CONTINUOUS
 10
1799.5159869559
 20
986.5245157661
 11
1628.6568005159
 21
842.7176493978
  0
LINE
  5
35F
100
AcDbEntity
  8
0
100
AcDbLine
 62
2
  6
CONTINUOUS
 10
1914.2773355637
 20
1083.115575734
 11
1799.5159869559
 21
986.5245157661
  0
INSERT
  5
360
100
AcDbEntity
  8
0
100
AcDbBlockReference
 62
2
  6
CONTINUOUS
  2
_FILLED
 10
1684.7546383481
 20
889.9334557982
 41
17.5
 42
17.5
 43
17.5
 50
220.0862767001
  0
INSERT
  5
361
100
AcDbEntity
  8
0
100
AcDbBlockReference
 62
2
  6
CONTINUOUS
  2
_FILLED
 10
1914.2773355637
 20
1083.115575734
 41
17.5
 42
17.5
 43
17.5
 50
40.0862767001
  0
ENDBLK
  5
362
100
AcDbEntity
  8
0
  6
BYBLOCK
 62
0
100
AcDbBlockEnd
  0
BLOCK
  5
363
100
AcDbEntity
  8
0
100
AcDbBlockBegin
 62
2
  6
CONTINUOUS
  2
*D18
 70
65
 10
0.0
 20
0.0
  3
*D18
  1

  0
MTEXT
  5
364
100
AcDbEntity
  8
0
100
AcDbMText
 62
5
  6
CONTINUOUS
  7
TEXTSTYLE_2
 71
1
 72
1
 10
1934.0747825144
 20
820.8289087661
 30
0.0
 11
0.5718822877
 21
-0.8203356929
 31
0.0
 44
0.9
  1
{\Fgdt;n}\Ftxt;265
 40
12.5
 41
45.2380952381
  0
LINE
  5
365
100
AcDbEntity
  8
0
100
AcDbLine
 62
2
  6
CONTINUOUS
 10
1875.2903900735
 20
877.8300364575
 11
1799.5159869559
 21
986.5245157661
  0
LINE
  5
366
100
AcDbEntity
  8
0
100
AcDbLine
 62
2
  6
CONTINUOUS
 10
1799.5159869559
 20
986.5245157661
 11
1947.127902708
 21
774.7828238187
  0
LINE
  5
367
100
AcDbEntity
  8
0
100
AcDbLine
 62
2
  6
CONTINUOUS
 10
1723.7415838383
 20
1095.2189950747
 11
1799.5159869559
 21
986.5245157661
  0
INSERT
  5
368
100
AcDbEntity
  8
0
100
AcDbBlockReference
 62
2
  6
CONTINUOUS
  2
_FILLED
 10
1875.2903900735
 20
877.8300364575
 41
17.5
 42
17.5
 43
17.5
 50
304.8815879717
  0
INSERT
  5
369
100
AcDbEntity
  8
0
100
AcDbBlockReference
 62
2
  6
CONTINUOUS
  2
_FILLED
 10
1723.7415838383
 20
1095.2189950747
 41
17.5
 42
17.5
 43
17.5
 50
124.8815879717
  0
ENDBLK
  5
36A
100
AcDbEntity
  8
0
  6
BYBLOCK
 62
0
100
AcDbBlockEnd
  0
BLOCK
  5
36B
100
AcDbEntity
  8
0
100
AcDbBlockBegin
 62
2
  6
CONTINUOUS
  2
*D19
 70
65
 10
0.0
 20
0.0
  3
*D19
  1

  0
MTEXT
  5
36C
100
AcDbEntity
  8
0
100
AcDbMText
 62
5
  6
CONTINUOUS
  7
STANDARD
 71
3
 72
1
 10
1781.0713909868
 20
1147.1495157661
 30
0.0
 11
1.0
 21
0.0
 31
0.0
 44
0.9
  1
M12
 40
12.5
 41
27.6785714286
  0
LINE
  5
36D
100
AcDbEntity
  8
0
100
AcDbLine
 62
2
  6
CONTINUOUS
 10
1887.2074421433
 20
1080.5665361522
 11
1887.1753065653
 21
1139.0827863632
  0
LINE
  5
36E
100
AcDbEntity
  8
0
100
AcDbLine
 62
2
  6
CONTINUOUS
 10
1899.2074456116
 20
1080.563515698
 11
1899.1753047557
 21
1139.0893764451
  0
LINE
  5
36F
100
AcDbEntity
  8
0
100
AcDbLine
 62
2
  6
CONTINUOUS
 10
1887.1794253664
 20
1131.5827874942
 11
1753.3928195582
 21
1131.5245157661
  0
LINE
  5
370
100
AcDbEntity
  8
0
100
AcDbLine
 62
2
  6
CONTINUOUS
 10
1753.3928195582
 20
1131.5245157661
 11
1893.1794244617
 21
1131.5860825351
  0
LINE
  5
371
100
AcDbEntity
  8
0
100
AcDbLine
 62
2
  6
CONTINUOUS
 10
1899.1794235569
 20
1131.589377576
 11
1929.179419033
 21
1131.6058527807
  0
LINE
  5
372
100
AcDbEntity
  8
0
100
AcDbLine
 62
2
  6
CONTINUOUS
 10
1929.179419033
 20
1131.6058527807
 11
1893.1794244617
 21
1131.5860825351
  0
INSERT
  5
373
100
AcDbEntity
  8
0
100
AcDbBlockReference
 62
2
  6
CONTINUOUS
  2
_FILLED
 10
1887.1794253664
 20
1131.5827874942
 41
17.5
 42
17.5
 43
17.5
 50
0.0249555914
  0
INSERT
  5
374
100
AcDbEntity
  8
0
100
AcDbBlockReference
 62
2
  6
CONTINUOUS
  2
_FILLED
 10
1899.1794235569
 20
1131.589377576
 41
17.5
 42
17.5
 43
17.5
 50
180.0314653246
  0
ENDBLK
  5
375
100
AcDbEntity
  8
0
  6
BYBLOCK
 62
0
100
AcDbBlockEnd
  0
BLOCK
  5
376
100
AcDbEntity
  8
0
100
AcDbBlockBegin
 62
2
  6
CONTINUOUS
  2
*D20
 70
65
 10
0.0
 20
0.0
  3
*D20
  1

  0
MTEXT
  5
377
100
AcDbEntity
  8
0
100
AcDbMText
 62
5
  6
CONTINUOUS
  7
TEXTSTYLE_2
 71
3
 72
1
 10
764.4543319903
 20
946.2175744507
 30
0.0
 11
0.0
 21
1.0
 31
0.0
 44
0.9
  1
{\Fgdt;n}\Ftxt;42
 40
12.5
 41
36.3095238095
  0
LINE
  5
378
100
AcDbEntity
  8
0
100
AcDbLine
 62
2
  6
CONTINUOUS
 10
914.0793319903
 20
965.5245157661
 11
772.5793319903
 21
965.5245157661
  0
LINE
  5
379
100
AcDbEntity
  8
0
100
AcDbLine
 62
2
  6
CONTINUOUS
 10
914.0793319903
 20
1007.5245157661
 11
772.5793319903
 21
1007.5245157661
  0
LINE
  5
37A
100
AcDbEntity
  8
0
100
AcDbLine
 62
2
  6
CONTINUOUS
 10
780.0793319903
 20
965.5245157661
 11
780.0793319903
 21
909.9080506412
  0
LINE
  5
37B
100
AcDbEntity
  8
0
100
AcDbLine
 62
2
  6
CONTINUOUS
 10
780.0793319903
 20
909.9080506412
 11
780.0793319903
 21
986.5245157661
  0
LINE
  5
37C
100
AcDbEntity
  8
0
100
AcDbLine
 62
2
  6
CONTINUOUS
 10
780.0793319903
 20
1007.5245157661
 11
780.0793319903
 21
1037.5245157661
  0
LINE
  5
37D
100
AcDbEntity
  8
0
100
AcDbLine
 62
2
  6
CONTINUOUS
 10
780.0793319903
 20
1037.5245157661
 11
780.0793319903
 21
986.5245157661
  0
INSERT
  5
37E
100
AcDbEntity
  8
0
100
AcDbBlockReference
 62
2
  6
CONTINUOUS
  2
_FILLED
 10
780.0793319903
 20
965.5245157661
 41
17.5
 42
17.5
 43
17.5
 50
90.0
  0
INSERT
  5
37F
100
AcDbEntity
  8
0
100
AcDbBlockReference
 62
2
  6
CONTINUOUS
  2
_FILLED
 10
780.0793319903
 20
1007.5245157661
 41
17.5
 42
17.5
 43
17.5
 50
270.0
  0
ENDBLK
  5
380
100
AcDbEntity
  8
0
  6
BYBLOCK
 62
0
100
AcDbBlockEnd
  0
BLOCK
  5
381
100
AcDbEntity
  8
0
100
AcDbBlockBegin
 62
2
  6
CONTINUOUS
  2
*D21
 70
65
 10
0.0
 20
0.0
  3
*D21
  1

  0
MTEXT
  5
382
100
AcDbEntity
  8
0
100
AcDbMText
 62
5
  6
CONTINUOUS
  7
STANDARD
 71
2
 72
1
 10
910.0793319903
 20
822.1495157661
 30
0.0
 11
1.0
 21
0.0
 31
0.0
 44
0.9
  1
110
 40
12.5
 41
24.1071428571
  0
LINE
  5
383
100
AcDbEntity
  8
0
100
AcDbLine
 62
2
  6
CONTINUOUS
 10
855.0793319903
 20
864.0245157661
 11
855.0793319903
 21
799.0245157661
  0
LINE
  5
384
100
AcDbEntity
  8
0
100
AcDbLine
 62
2
  6
CONTINUOUS
 10
965.0793319903
 20
968.0379128966
 11
965.0793319903
 21
799.0245157661
  0
LINE
  5
385
100
AcDbEntity
  8
0
100
AcDbLine
 62
2
  6
CONTINUOUS
 10
855.0793319903
 20
806.5245157661
 11
910.0793319903
 21
806.5245157661
  0
LINE
  5
386
100
AcDbEntity
  8
0
100
AcDbLine
 62
2
  6
CONTINUOUS
 10
965.0793319903
 20
806.5245157661
 11
910.0793319903
 21
806.5245157661
  0
INSERT
  5
387
100
AcDbEntity
  8
0
100
AcDbBlockReference
 62
2
  6
CONTINUOUS
  2
_FILLED
 10
855.0793319903
 20
806.5245157661
 41
17.5
 42
17.5
 43
17.5
 50
180.0
  0
INSERT
  5
388
100
AcDbEntity
  8
0
100
AcDbBlockReference
 62
2
  6
CONTINUOUS
  2
_FILLED
 10
965.0793319903
 20
806.5245157661
 41
17.5
 42
17.5
 43
17.5
  0
ENDBLK
  5
389
100
AcDbEntity
  8
0
  6
BYBLOCK
 62
0
100
AcDbBlockEnd
  0
BLOCK
  5
38A
100
AcDbEntity
  8
0
100
AcDbBlockBegin
 62
2
  6
CONTINUOUS
  2
*D22
 70
65
 10
0.0
 20
0.0
  3
*D22
  1

  0
MTEXT
  5
38B
100
AcDbEntity
  8
0
100
AcDbMText
 62
5
  6
CONTINUOUS
  7
STANDARD
 71
2
 72
1
 10
926.3293319903
 20
1173.1495157661
 30
0.0
 11
1.0
 21
0.0
 31
0.0
 44
0.9
  1
142.5
 40
12.5
 41
42.8571428571
  0
LINE
  5
38C
100
AcDbEntity
  8
0
100
AcDbLine
 62
2
  6
CONTINUOUS
 10
855.0793319903
 20
1109.0245157661
 11
855.0793319903
 21
1165.0245157661
  0
LINE
  5
38D
100
AcDbEntity
  8
0
100
AcDbLine
 62
2
  6
CONTINUOUS
 10
997.5793319903
 20
1109.0245157661
 11
997.5793319903
 21
1165.0245157661
  0
LINE
  5
38E
100
AcDbEntity
  8
0
100
AcDbLine
 62
2
  6
CONTINUOUS
 10
855.0793319903
 20
1157.5245157661
 11
926.3293319903
 21
1157.5245157661
  0
LINE
  5
38F
100
AcDbEntity
  8
0
100
AcDbLine
 62
2
  6
CONTINUOUS
 10
997.5793319903
 20
1157.5245157661
 11
926.3293319903
 21
1157.5245157661
  0
INSERT
  5
390
100
AcDbEntity
  8
0
100
AcDbBlockReference
 62
2
  6
CONTINUOUS
  2
_FILLED
 10
855.0793319903
 20
1157.5245157661
 41
17.5
 42
17.5
 43
17.5
 50
180.0
  0
INSERT
  5
391
100
AcDbEntity
  8
0
100
AcDbBlockReference
 62
2
  6
CONTINUOUS
  2
_FILLED
 10
997.5793319903
 20
1157.5245157661
 41
17.5
 42
17.5
 43
17.5
  0
ENDBLK
  5
392
100
AcDbEntity
  8
0
  6
BYBLOCK
 62
0
100
AcDbBlockEnd
  0
BLOCK
  5
393
100
AcDbEntity
  8
0
100
AcDbBlockBegin
 62
2
  6
CONTINUOUS
  2
*D23
 70
65
 10
0.0
 20
0.0
  3
*D23
  1

  0
MTEXT
  5
394
100
AcDbEntity
  8
0
100
AcDbMText
 62
5
  6
CONTINUOUS
  7
STANDARD
 71
3
 72
1
 10
817.6656108274
 20
857.1495157661
 30
0.0
 11
1.0
 21
0.0
 31
0.0
 44
0.9
  1
6.25
 40
12.5
 41
35.7142857143
  0
LINE
  5
395
100
AcDbEntity
  8
0
100
AcDbLine
 62
2
  6
CONTINUOUS
 10
855.0793319903
 20
929.0245157661
 11
855.0793319903
 21
834.0245157661
  0
LINE
  5
396
100
AcDbEntity
  8
0
100
AcDbLine
 62
2
  6
CONTINUOUS
 10
861.3293319903
 20
929.0245157661
 11
861.3293319903
 21
834.0245157661
  0
LINE
  5
397
100
AcDbEntity
  8
0
100
AcDbLine
 62
2
  6
CONTINUOUS
 10
855.0793319903
 20
841.5245157661
 11
781.9513251131
 21
841.5245157661
  0
LINE
  5
398
100
AcDbEntity
  8
0
100
AcDbLine
 62
2
  6
CONTINUOUS
 10
781.9513251131
 20
841.5245157661
 11
858.2043319903
 21
841.5245157661
  0
LINE
  5
399
100
AcDbEntity
  8
0
100
AcDbLine
 62
2
  6
CONTINUOUS
 10
861.3293319903
 20
841.5245157661
 11
891.3293319903
 21
841.5245157661
  0
LINE
  5
39A
100
AcDbEntity
  8
0
100
AcDbLine
 62
2
  6
CONTINUOUS
 10
891.3293319903
 20
841.5245157661
 11
858.2043319903
 21
841.5245157661
  0
INSERT
  5
39B
100
AcDbEntity
  8
0
100
AcDbBlockReference
 62
2
  6
CONTINUOUS
  2
_FILLED
 10
855.0793319903
 20
841.5245157661
 41
17.5
 42
17.5
 43
17.5
  0
INSERT
  5
39C
100
AcDbEntity
  8
0
100
AcDbBlockReference
 62
2
  6
CONTINUOUS
  2
_FILLED
 10
861.3293319903
 20
841.5245157661
 41
17.5
 42
17.5
 43
17.5
 50
180.0
  0
ENDBLK
  5
39D
100
AcDbEntity
  8
0
  6
BYBLOCK
 62
0
100
AcDbBlockEnd
  0
BLOCK
  5
39E
100
AcDbEntity
  8
0
100
AcDbBlockBegin
 62
2
  6
CONTINUOUS
  2
*D24
 70
65
 10
0.0
 20
0.0
  3
*D24
  1

  0
MTEXT
  5
39F
100
AcDbEntity
  8
0
100
AcDbMText
 62
5
  6
CONTINUOUS
  7
TEXTSTYLE_2
 71
2
 72
1
 10
714.4543319903
 20
986.5245157661
 30
0.0
 11
0.0
 21
1.0
 31
0.0
 44
0.9
  1
{\Fgdt;n}\Ftxt;230
 40
12.5
 41
45.2380952381
  0
LINE
  5
3A0
100
AcDbEntity
  8
0
100
AcDbLine
 62
2
  6
CONTINUOUS
 10
847.5793319903
 20
1101.5245157661
 11
722.5793319903
 21
1101.5245157661
  0
LINE
  5
3A1
100
AcDbEntity
  8
0
100
AcDbLine
 62
2
  6
CONTINUOUS
 10
847.5793319903
 20
871.5245157661
 11
722.5793319903
 21
871.5245157661
  0
LINE
  5
3A2
100
AcDbEntity
  8
0
100
AcDbLine
 62
2
  6
CONTINUOUS
 10
730.0793319903
 20
1101.5245157661
 11
730.0793319903
 21
986.5245157661
  0
LINE
  5
3A3
100
AcDbEntity
  8
0
100
AcDbLine
 62
2
  6
CONTINUOUS
 10
730.0793319903
 20
871.5245157661
 11
730.0793319903
 21
986.5245157661
  0
INSERT
  5
3A4
100
AcDbEntity
  8
0
100
AcDbBlockReference
 62
2
  6
CONTINUOUS
  2
_FILLED
 10
730.0793319903
 20
1101.5245157661
 41
17.5
 42
17.5
 43
17.5
 50
90.0
  0
INSERT
  5
3A5
100
AcDbEntity
  8
0
100
AcDbBlockReference
 62
2
  6
CONTINUOUS
  2
_FILLED
 10
730.0793319903
 20
871.5245157661
 41
17.5
 42
17.5
 43
17.5
 50
270.0
  0
ENDBLK
  5
3A6
100
AcDbEntity
  8
0
  6
BYBLOCK
 62
0
100
AcDbBlockEnd
  0
ENDSEC
  0
SECTION
  2
ENTITIES
  0
DIMENSION
  5
3A7
100
AcDbEntity
  8
ZEICHNUNGSBEMASSUNGEN
100
AcDbDimension
 62
2
  6
CONTINUOUS
  2
*D0
 10
855.0793319903
 20
1207.5245157661
 11
996.4733109626
 21
1216.8995157661
 70
160
 71
2
 42
344.0
  3
DIMSTYLE_1
100
AcDbAlignedDimension
 13
1199.0793319903
 23
1017.0245157661
 14
855.0793319903
 24
975.9942469034
 50
180.0
100
AcDbRotatedDimension
  0
DIMENSION
  5
3A8
100
AcDbEntity
  8
ZEICHNUNGSBEMASSUNGEN
100
AcDbDimension
 62
2
  6
CONTINUOUS
  2
*D1
 10
997.5793319903
 20
1157.5245157661
 11
1026.8114748474
 21
1166.8995157661
 70
160
 71
2
 42
91.5
  3
DIMSTYLE_2
100
AcDbAlignedDimension
 13
1089.0793319903
 23
1054.0245157661
 14
997.5793319903
 24
926.9625395863
 50
180.0
100
AcDbRotatedDimension
  0
DIMENSION
  5
3A9
100
AcDbEntity
  8
0
100
AcDbDimension
 62
2
  6
CONTINUOUS
  2
*D2
 10
363.1959567929
 20
1194.0245157661
 11
281.2026532215
 21
1203.3995157661
 70
160
 71
2
 42
142.0
  1
{\Fgdt;o}<>
  3
DIMSTYLE_3
100
AcDbAlignedDimension
 13
221.1959567929
 23
1049.8748039895
 14
363.1959567929
 24
1049.8748039895
100
AcDbRotatedDimension
  0
DIMENSION
  5
3AA
100
AcDbEntity
  8
0
100
AcDbDimension
 62
2
  6
CONTINUOUS
  2
*D3
 10
357.7625540211
 20
921.2767470079
 11
441.3844518608
 21
851.2875307397
 70
163
 71
1
 42
185.0
  1
<>
  3
DIMSTYLE_4
100
AcDbDiametricDimension
 15
226.6293595648
 25
1051.7722845243
  0
DIMENSION
  5
3AB
100
AcDbEntity
  8
0
100
AcDbDimension
 62
2
  6
CONTINUOUS
  2
*D4
 10
1089.0793319903
 20
1107.5245157661
 11
1036.7361506662
 21
1116.8995157661
 70
160
 71
3
 42
28.0
  3
DIMSTYLE_5
100
AcDbAlignedDimension
 13
1117.0793319903
 23
1054.0245157661
 14
1089.0793319903
 24
1054.0245157661
 50
180.0
100
AcDbRotatedDimension
  0
DIMENSION
  5
3AC
100
AcDbEntity
  8
0
100
AcDbDimension
 62
2
  6
CONTINUOUS
  2
*D5
 10
1374.0793319903
 20
1051.5245157661
 11
1369.4717819238
 21
972.6907015944
 70
160
 71
2
 42
130.0
  1
%%c<>
  3
DIMSTYLE_6
100
AcDbAlignedDimension
 13
1091.5793319903
 23
921.5245157661
 14
1091.5793319903
 24
1051.5245157661
 50
90.0
100
AcDbRotatedDimension
  0
LEADER
  5
3AD
100
AcDbEntity
  8
0
100
AcDbLeader
 62
2
  6
CONTINUOUS
  3
STANDARD
 71
1
 72
0
 73
2
 75
0
 76
3
 10
1374.0793319903
 20
921.5245157661
 30
0.0
 10
1374.0793319903
 20
840.5245157661
 30
0.0
 10
1361.8486994308
 20
840.5245157661
 30
0.0
340
3AE
1001
ACAD
1000
DSTYLE
1002
{
1070
77
1070
0
1002
}
  0
INSERT
  5
3AE
102
{ACAD_REACTORS
330
3AD
102
}
100
AcDbEntity
  8
0
100
AcDbBlockReference
 62
2
  6
CONTINUOUS
  2
SYMBOL_64_BL0
 10
1289.3486994308
 20
839.2305619768
  0
INSERT
  5
3AF
100
AcDbEntity
  8
0
100
AcDbBlockReference
 62
2
  6
CONTINUOUS
  2
SYMBOL_38_BL1
 10
1374.0793319903
 20
1082.7745157661
  0
DIMENSION
  5
3B0
100
AcDbEntity
  8
0
100
AcDbDimension
 62
2
  6
CONTINUOUS
  2
*D6
 10
1324.0267135437
 20
951.1870898761
 11
1313.6529910836
 21
979.635164811
 70
160
 71
2
 42
70.0
  1
%%c<>
  3
DIMSTYLE_7
100
AcDbAlignedDimension
 13
1121.5793319903
 23
1021.5172260778
 14
1121.5793319903
 24
951.517133056
 50
269.906592694
100
AcDbRotatedDimension
  0
DIMENSION
  5
3B1
100
AcDbEntity
  8
0
100
AcDbDimension
 62
2
  6
CONTINUOUS
  2
*D7
 10
1199.0793319903
 20
1132.5245157661
 11
1149.2579034189
 21
1141.8995157661
 70
160
 71
2
 42
80.0
  3
DIMSTYLE_2
100
AcDbAlignedDimension
 13
1119.0793319903
 23
1024.0245157661
 14
1199.0793319903
 24
1017.0245157661
100
AcDbRotatedDimension
  0
DIMENSION
  5
3B2
100
AcDbEntity
  8
0
100
AcDbDimension
 62
2
  6
CONTINUOUS
  2
*D8
 10
1274.0793319903
 20
1006.5245157661
 11
1272.8390018069
 21
877.13945729
 70
160
 71
3
 42
40.0
  1
%%c<>
  3
DIMSTYLE_8
100
AcDbAlignedDimension
 13
1201.5793319903
 23
966.5245157661
 14
1201.5793319903
 24
1006.5245157661
 50
90.0
100
AcDbRotatedDimension
  0
LEADER
  5
3B3
100
AcDbEntity
  8
0
100
AcDbLeader
 62
2
  6
CONTINUOUS
  3
STANDARD
 71
1
 72
0
 73
2
 75
0
 76
3
 10
1262.3642024046
 20
1006.5245157661
 30
0.0
 10
1262.5774046703
 20
1157.5245157661
 30
0.0
 10
1275.4510466137
 20
1157.5245157661
 30
0.0
340
3B4
1001
ACAD
1000
DSTYLE
1002
{
1070
77
1070
0
1002
}
  0
INSERT
  5
3B4
102
{ACAD_REACTORS
330
3B3
102
}
100
AcDbEntity
  8
0
100
AcDbBlockReference
 62
2
  6
CONTINUOUS
  2
SYMBOL_47_BL2
 10
1355.4510261439
 20
1156.8015240848
  0
DIMENSION
  5
3B5
100
AcDbEntity
  8
0
100
AcDbDimension
 62
2
  6
CONTINUOUS
  2
*D9
 10
403.6003208037
 20
1105.7070543699
 11
452.095756172
 21
1070.4698711489
 70
160
 71
1
 42
11.0
  3
DIMSTYLE_9
100
AcDbAlignedDimension
 13
358.2230742653
 23
1044.7734586454
 14
350.693790323
 24
1052.8005238893
 50
135.0
100
AcDbRotatedDimension
  0
DIMENSION
  5
3B6
100
AcDbEntity
  8
ZEICHNUNGSBEMASSUNGEN
100
AcDbDimension
 62
2
  6
CONTINUOUS
  2
*D10
 10
1089.0793319903
 20
1157.5245157661
 11
1132.0257605617
 21
1166.8995157661
 70
160
 71
2
 42
110.0
  3
DIMSTYLE_2
100
AcDbAlignedDimension
 13
1199.0793319903
 23
1017.0245157661
 14
1089.0793319903
 24
1054.0245157661
 50
180.0
100
AcDbRotatedDimension
  0
DIMENSION
  5
3B7
100
AcDbEntity
  8
ZEICHNUNGSBEMASSUNGEN
100
AcDbDimension
 62
2
  6
CONTINUOUS
  2
*D11
 10
1165.6076833612
 20
926.4701298351
 11
1133.2432620268
 21
911.826358252
 70
162
 71
2
 42
0.0872664277
  3
DIMSTYLE_10
100
AcDb2LineAngularDimension
 13
1165.8236134482
 23
921.5245157661
 14
1116.5793314442
 24
921.5245157661
 15
1147.5473855749
 25
924.8900591545
 16
1158.276743557
 26
923.6725333309
  0
DIMENSION
  5
3B8
100
AcDbEntity
  8
ZEICHNUNGSBEMASSUNGEN
100
AcDbDimension
 62
2
  6
CONTINUOUS
  2
*D12
 10
1089.0793319903
 20
840.5245157661
 11
1025.7979671626
 21
849.8995157661
 70
160
 71
3
 42
12.0
  3
DIMSTYLE_5
100
AcDbAlignedDimension
 13
1077.0793319903
 23
910.5245157661
 14
1089.0793319903
 24
910.5245157661
100
AcDbRotatedDimension
  0
INSERT
  5
3B9
100
AcDbEntity
  8
0
100
AcDbBlockReference
 62
2
  6
CONTINUOUS
  2
SYMBOL_70_BL3
 10
1120.3293319903
 20
870.6812558272
  0
DIMENSION
  5
3BA
100
AcDbEntity
  8
0
100
AcDbDimension
 62
2
  6
CONTINUOUS
  2
*D13
 10
370.5179000653
 20
960.6030342875
 11
494.3871243349
 21
931.7172916847
 70
163
 71
1
 42
165.0
  1
 <>
  3
DIMSTYLE_11
100
AcDbDiametricDimension
 15
213.8740135206
 25
1012.4459972446
  0
DIMENSION
  5
3BB
100
AcDbEntity
  8
ZEICHNUNGSBEMASSUNGEN
100
AcDbDimension
 62
2
  6
CONTINUOUS
  2
*D14
 10
1109.0792722349
 20
1082.5245157661
 11
1031.0669472767
 21
1091.8995157661
 70
160
 71
3
 42
19.9999402446
  3
DIMSTYLE_5
100
AcDbAlignedDimension
 13
1089.0793319903
 23
1054.0245157661
 14
1109.0792722349
 24
1054.0245157661
100
AcDbRotatedDimension
  0
DIMENSION
  5
3BC
100
AcDbEntity
  8
0
100
AcDbDimension
 62
2
  6
CONTINUOUS
  2
*D15
 10
855.0793319903
 20
1126.5245157661
 11
886.9721891331
 21
1135.8995157661
 70
160
 71
2
 42
99.5
  3
DIMSTYLE_2
100
AcDbAlignedDimension
 13
954.5793319903
 23
1109.0245157661
 14
855.0793319903
 24
1109.0245157661
 50
180.0
100
AcDbRotatedDimension
  0
DIMENSION
  5
3BD
100
AcDbEntity
  8
0
100
AcDbDimension
 62
2
  6
CONTINUOUS
  2
*D16
 10
1919.5159869559
 20
1166.5245157661
 11
1787.8530405273
 21
1175.8995157661
 70
160
 71
2
 42
240.0
  1
{\Fgdt;o}<>
  3
DIMSTYLE_1
100
AcDbAlignedDimension
 13
1679.5159869559
 23
1082.1916861754
 14
1919.5159869559
 24
1082.0153030749
100
AcDbRotatedDimension
  0
DIMENSION
  5
3BE
100
AcDbEntity
  8
0
100
AcDbDimension
 62
2
  6
CONTINUOUS
  2
*D17
 10
1684.7546383481
 20
889.9334557982
 11
1656.4068174959
 21
848.9644035583
 70
163
 71
3
 42
300.0
  1
<>
  3
DIMSTYLE_12
100
AcDbDiametricDimension
 15
1914.2773355637
 25
1083.115575734
  0
DIMENSION
  5
3BF
100
AcDbEntity
  8
0
100
AcDbDimension
 62
2
  6
CONTINUOUS
  2
*D18
 10
1875.2903900735
 20
877.8300364575
 11
1941.8831171313
 21
798.6994323669
 70
163
 71
1
 42
265.0
  1
<>
  3
DIMSTYLE_12
100
AcDbDiametricDimension
 15
1723.7415838383
 25
1095.2189950747
  0
DIMENSION
  5
3C0
100
AcDbEntity
  8
0
100
AcDbDimension
 62
2
  6
CONTINUOUS
  2
*D19
 10
1899.1794235569
 20
1131.589377576
 11
1753.3928195582
 21
1140.8995157661
 70
160
 71
3
 42
12.0
  1
M<>
  3
DIMSTYLE_5
100
AcDbAlignedDimension
 13
1887.2074421433
 23
1080.5665361522
 14
1899.2074456116
 24
1080.563515698
 50
0.0314653246
100
AcDbRotatedDimension
  0
DIMENSION
  5
3C1
100
AcDbEntity
  8
0
100
AcDbDimension
 62
2
  6
CONTINUOUS
  2
*D20
 10
780.0793319903
 20
1007.5245157661
 11
778.8390018069
 21
911.8325159746
 70
160
 71
3
 42
42.0
  1
%%c<>
  3
DIMSTYLE_2
100
AcDbAlignedDimension
 13
914.0793319903
 23
965.5245157661
 14
914.0793319903
 24
1007.5245157661
 50
90.0
100
AcDbRotatedDimension
  0
DIMENSION
  5
3C2
100
AcDbEntity
  8
0
100
AcDbDimension
 62
2
  6
CONTINUOUS
  2
*D21
 10
965.0793319903
 20
806.5245157661
 11
898.0257605617
 21
815.8995157661
 70
160
 71
2
 42
110.0
  3
DIMSTYLE_2
100
AcDbAlignedDimension
 13
855.0793319903
 23
864.0245157661
 14
965.0793319903
 24
968.0379128966
100
AcDbRotatedDimension
  0
DIMENSION
  5
3C3
100
AcDbEntity
  8
0
100
AcDbDimension
 62
2
  6
CONTINUOUS
  2
*D22
 10
997.5793319903
 20
1157.5245157661
 11
904.9007605617
 21
1166.8995157661
 70
160
 71
2
 42
142.5
  3
DIMSTYLE_1
100
AcDbAlignedDimension
 13
855.0793319903
 23
1109.0245157661
 14
997.5793319903
 24
1109.0245157661
100
AcDbRotatedDimension
  0
DIMENSION
  5
3C4
100
AcDbEntity
  8
0
100
AcDbDimension
 62
2
  6
CONTINUOUS
  2
*D23
 10
861.3293319903
 20
841.5245157661
 11
764.0941822559
 21
850.8995157661
 70
160
 71
3
 42
6.25
  3
DIMSTYLE_5
100
AcDbAlignedDimension
 13
855.0793319903
 23
929.0245157661
 14
861.3293319903
 24
929.0245157661
100
AcDbRotatedDimension
  0
DIMENSION
  5
3C5
100
AcDbEntity
  8
0
100
AcDbDimension
 62
2
  6
CONTINUOUS
  2
*D24
 10
730.0793319903
 20
871.5245157661
 11
725.7718312203
 21
976.4138392134
 70
160
 71
2
 42
230.0
  1
%%c<>
  3
DIMSTYLE_1
100
AcDbAlignedDimension
 13
847.5793319903
 23
1101.5245157661
 14
847.5793319903
 24
871.5245157661
 50
270.0
100
AcDbRotatedDimension
  0
LEADER
  5
3C6
100
AcDbEntity
  8
0
100
AcDbLeader
 62
2
  6
CONTINUOUS
  3
STANDARD
 71
1
 72
0
 73
0
 75
0
 40
12.5
 41
69.6428571429
 76
3
 10
1119.0793106454
 20
966.5245157661
 30
0.0
 10
1244.0793319903
 20
880.5245157661
 30
0.0
 10
1269.0793319903
 20
880.5245157661
 30
0.0
340
3C7
1001
ACAD
1000
DSTYLE
1002
{
1070
77
1070
0
1002
}
  0
MTEXT
  5
3C7
102
{ACAD_REACTORS
330
3C6
102
}
100
AcDbEntity
  8
0
100
AcDbMText
 62
5
  6
CONTINUOUS
  7
STANDARD
 71
1
 72
1
 10
1269.0793319903
 20
886.7745157661
 30
0.0
 11
1.0
 21
0.0
 31
0.0
 44
0.9
  1
max.R1.5
 40
12.5
 41
69.6428571429
  0
MTEXT
  5
3C8
100
AcDbEntity
  8
0
100
AcDbMText
 62
5
  6
CONTINUOUS
  7
STANDARD
 71
1
 72
1
 10
1258.3816382032
 20
919.3078711145
 30
0.0
 11
0.0
 21
1.0
 31
0.0
 44
0.9
  1
k6
 40
12.5
 41
18.75
  0
MTEXT
  5
3C9
100
AcDbEntity
  8
0
100
AcDbMText
 62
5
  6
CONTINUOUS
  7
STANDARD
 71
1
 72
1
 10
1356.8897390123
 20
1013.5694653887
 30
0.0
 11
0.0
 21
1.0
 31
0.0
 44
0.9
  1
g7
 40
12.5
 41
18.75
  0
MTEXT
  5
3CA
100
AcDbEntity
  8
0
100
AcDbMText
 62
5
  6
CONTINUOUS
  7
STANDARD
 71
1
 72
1
 10
1329.7899436596
 20
1162.6446539992
 30
0.0
 11
1.0
 21
0.0
 31
0.0
 44
0.9
  1
0,04
 40
12.5
 41
36.6071428571
  0
MTEXT
  5
3CB
100
AcDbEntity
  8
0
100
AcDbMText
 62
5
  6
CONTINUOUS
  7
STANDARD
 71
1
 72
1
 10
1276.7764162282
 20
845.2089069245
 30
0.0
 11
1.0
 21
0.0
 31
0.0
 44
0.9
  1
0,03
 40
12.5
 41
35.7142857143
  0
MTEXT
  5
3CC
100
AcDbEntity
  8
0
100
AcDbMText
 62
5
  6
CONTINUOUS
  7
STANDARD
 71
1
 72
1
 10
1392.7698334983
 20
1162.8438994931
 30
0.0
 11
1.0
 21
0.0
 31
0.0
 44
0.9
  1
A
 40
12.5
 41
13.0952380952
  0
MTEXT
  5
3CD
100
AcDbEntity
  8
0
100
AcDbMText
 62
5
  6
CONTINUOUS
  7
STANDARD
 71
1
 72
1
 10
1418.047065815
 20
1163.0499568925
 30
0.0
 11
1.0
 21
0.0
 31
0.0
 44
0.9
  1
B
 40
12.5
 41
12.2023809524
  0
MTEXT
  5
3CE
100
AcDbEntity
  8
0
100
AcDbMText
 62
5
  6
CONTINUOUS
  7
STANDARD
 71
1
 72
1
 10
1337.9387731946
 20
845.724640427
 30
0.0
 11
1.0
 21
0.0
 31
0.0
 44
0.9
  1
A
 40
12.5
 41
13.0952380952
  0
MTEXT
  5
3CF
100
AcDbEntity
  8
0
100
AcDbMText
 62
5
  6
CONTINUOUS
  7
STANDARD
 71
1
 72
1
 10
1368.7182646551
 20
1102.6362128376
 30
0.0
 11
1.0
 21
0.0
 31
0.0
 44
0.9
  1
B
 40
12.5
 41
12.2023809524
  0
MTEXT
  5
3D0
100
AcDbEntity
  8
0
100
AcDbMText
 62
5
  6
CONTINUOUS
  7
STANDARD
 71
1
 72
1
 10
1128.0480600915
 20
876.3941149068
 30
0.0
 11
1.0
 21
0.0
 31
0.0
 44
0.9
  1
A
 40
12.5
 41
13.0952380952
  0
MTEXT
  5
3D1
100
AcDbEntity
  8
0
100
AcDbMText
 62
5
  6
CONTINUOUS
  7
STANDARD
 71
1
 72
1
 10
760.6838447174
 20
1029.7201524662
 30
0.0
 11
0.0
 21
1.0
 31
0.0
 44
0.9
  1
(for shaft diam. tol. j6/k6)
 40
12.5
 41
232.1428571429
  0
MTEXT
  5
3D2
100
AcDbEntity
  8
0
100
AcDbMText
 62
5
  6
CONTINUOUS
  7
STANDARD
 71
1
 72
1
 10
430.0865287485
 20
959.078463302
 30
0.0
 11
0.9426414911
 21
-0.3338068592
 31
0.0
 44
0.9
  1
pcd.
 40
12.5
 41
33.0357142857
  0
MTEXT
  5
3D3
100
AcDbEntity
  8
0
100
AcDbMText
 62
5
  6
CONTINUOUS
  7
TEXTSTYLE_2
 71
1
 72
1
 10
436.4814717464
 20
1094.6491897644
 30
0.0
 11
0.7071067812
 21
-0.7071067812
 31
0.0
 44
0.9
  1
{\Fgdt;n}
 40
12.5
 41
18.75
  0
MTEXT
  5
3D4
100
AcDbEntity
  8
0
100
AcDbMText
 62
5
  6
CONTINUOUS
  7
STANDARD
 71
1
 72
1
 10
1915.9262010332
 20
846.3448060637
 30
0.0
 11
0.5877852523
 21
-0.8090169944
 31
0.0
 44
0.9
  1
pcd.
 40
12.5
 41
33.0357142857
  0
MTEXT
  5
3D5
100
AcDbEntity
  8
0
100
AcDbMText
 62
5
  6
CONTINUOUS
  7
STANDARD
 71
1
 72
1
 10
1781.2217498386
 20
1147.0676830642
 30
0.0
 11
1.0
 21
0.0
 31
0.0
 44
0.9
  1
x24 deep
 40
12.5
 41
74.1071428571
  0
LINE
  5
3D6
100
AcDbEntity
  8
0
100
AcDbLine
 62
2
  6
CONTINUOUS
 10
23.966061737
 20
1460.2351977443
 11
23.966061737
 21
25.1757093461
  0
LINE
  5
3D7
100
AcDbEntity
  8
0
100
AcDbLine
 62
2
  6
CONTINUOUS
 10
23.966061737
 20
25.1757093461
 11
2075.5540400189
 21
25.1757093461
  0
LINE
  5
3D8
100
AcDbEntity
  8
0
100
AcDbLine
 62
2
  6
CONTINUOUS
 10
2075.5540400189
 20
1460.2351977443
 11
23.966061737
 21
1460.2351977443
  0
LINE
  5
3D9
100
AcDbEntity
  8
0
100
AcDbLine
 62
2
  6
CONTINUOUS
 10
2075.5540400189
 20
25.1757093461
 11
2075.5540400189
 21
1460.2351977443
  0
LINE
  5
3DA
100
AcDbEntity
  8
0
100
AcDbLine
 62
7
  6
CONTINUOUS
 10
855.0793319903
 20
1106.5245157661
 11
855.0793319903
 21
866.5245157661
  0
LINE
  5
3DB
100
AcDbEntity
  8
AUSBLENDEN
100
AcDbLine
 62
2
  6
CENTER
 10
861.3293319903
 20
1101.5245157661
 11
861.3293319903
 21
871.5245157661
  0
LINE
  5
3DC
100
AcDbEntity
  8
0
100
AcDbLine
 62
7
  6
CONTINUOUS
 10
954.5793319903
 20
866.5245157661
 11
855.0793319903
 21
866.5245157661
  0
LINE
  5
3DD
100
AcDbEntity
  8
AUSBLENDEN
100
AcDbLine
 62
2
  6
CENTER
 10
861.3293319903
 20
871.5245157661
 11
855.0793319903
 21
871.5245157661
  0
LINE
  5
3DE
100
AcDbEntity
  8
0
100
AcDbLine
 62
7
  6
CONTINUOUS
 10
922.3831795676
 20
959.5245157661
 11
922.3831795676
 21
953.5245157661
  0
LINE
  5
3DF
100
AcDbEntity
  8
BEZUGSACHSEN
100
AcDbLine
 62
2
  6
CENTER
 10
927.5793319903
 20
956.5245157661
 11
927.5793319903
 21
932.7745157661
  0
LINE
  5
3E0
100
AcDbEntity
  8
BEZUGSACHSEN
100
AcDbLine
 62
2
  6
CENTER
 10
927.5793319903
 20
932.7745157661
 11
927.5793319903
 21
931.5039768285
  0
LINE
  5
3E1
100
AcDbEntity
  8
BEZUGSACHSEN
100
AcDbLine
 62
2
  6
CENTER
 10
927.5793319903
 20
956.5245157661
 11
927.5793319903
 21
968.0245416631
  0
LINE
  5
3E2
100
AcDbEntity
  8
BEZUGSACHSEN
100
AcDbLine
 62
2
  6
CENTER
 10
927.5793319903
 20
968.0245416631
 11
927.5793319903
 21
980.2745157661
  0
LINE
  5
3E3
100
AcDbEntity
  8
0
100
AcDbLine
 62
7
  6
CONTINUOUS
 10
932.775484413
 20
953.5245157661
 11
932.775484413
 21
959.5245157661
  0
LINE
  5
3E4
100
AcDbEntity
  8
0
100
AcDbLine
 62
7
  6
CONTINUOUS
 10
997.5793319903
 20
891.5745157661
 11
954.5793319903
 21
891.5745157661
  0
LINE
  5
3E5
100
AcDbEntity
  8
0
100
AcDbLine
 62
7
  6
CONTINUOUS
 10
954.5793319903
 20
896.5245157661
 11
855.0793319903
 21
896.5245157661
  0
LINE
  5
3E6
100
AcDbEntity
  8
0
100
AcDbLine
 62
7
  6
CONTINUOUS
 10
954.5793319903
 20
1106.5245157661
 11
954.5793319903
 21
866.5245157661
  0
LINE
  5
3E7
100
AcDbEntity
  8
FASEN
100
AcDbLine
 62
7
  6
CONTINUOUS
 10
1117.0793297487
 20
922.2244507422
 11
1109.0793291783
 21
921.5245416656
  0
LINE
  5
3E8
100
AcDbEntity
  8
0
100
AcDbLine
 62
7
  6
CONTINUOUS
 10
986.6734845542
 20
913.2271761145
 11
954.5793319903
 21
913.2271761145
  0
LINE
  5
3E9
100
AcDbEntity
  8
0
100
AcDbLine
 62
7
  6
CONTINUOUS
 10
1089.0793319903
 20
915.5245157661
 11
1077.0793319903
 21
915.5245157661
  0
LINE
  5
3EA
100
AcDbEntity
  8
0
100
AcDbLine
 62
7
  6
CONTINUOUS
 10
997.5793319903
 20
915.5245157661
 11
1050.3318545708
 21
915.5245157661
  0
LINE
  5
3EB
100
AcDbEntity
  8
0
100
AcDbLine
 62
7
  6
CONTINUOUS
 10
922.3831795676
 20
953.5245157661
 11
927.5793319903
 21
950.5245157661
  0
LINE
  5
3EC
100
AcDbEntity
  8
0
100
AcDbLine
 62
7
  6
CONTINUOUS
 10
932.775484413
 20
959.5245157661
 11
927.5793319903
 21
962.5245157661
  0
LINE
  5
3ED
100
AcDbEntity
  8
ANSICHT_3D
100
AcDbLine
 62
2
  6
CENTER
 10
965.0793319903
 20
965.5379128966
 11
965.0793319903
 21
1007.5245157661
  0
LINE
  5
3EE
100
AcDbEntity
  8
0
100
AcDbLine
 62
7
  6
CONTINUOUS
 10
1053.0793319903
 20
916.5245157661
 11
1077.0793319903
 21
916.5245157661
  0
LINE
  5
3EF
100
AcDbEntity
  8
0
100
AcDbLine
 62
7
  6
CONTINUOUS
 10
1089.0793319903
 20
921.5245157661
 11
1109.0793314442
 21
921.5245157661
  0
LINE
  5
3F0
100
AcDbEntity
  8
0
100
AcDbLine
 62
7
  6
CONTINUOUS
 10
1089.0793319903
 20
927.2349719999
 11
1077.0793319903
 21
927.2349719999
  0
LINE
  5
3F1
100
AcDbEntity
  8
0
100
AcDbLine
 62
7
  6
CONTINUOUS
 10
986.6734845542
 20
1081.4745157661
 11
986.6734845542
 21
1059.8218554177
  0
LINE
  5
3F2
100
AcDbEntity
  8
0
100
AcDbLine
 62
7
  6
CONTINUOUS
 10
986.6734845542
 20
913.2271761145
 11
986.6734845542
 21
891.5745157661
  0
LINE
  5
3F3
100
AcDbEntity
  8
0
100
AcDbLine
 62
7
  6
CONTINUOUS
 10
997.5793319903
 20
891.5745157661
 11
997.5793319903
 21
1081.4745157661
  0
LINE
  5
3F4
100
AcDbEntity
  8
0
100
AcDbLine
 62
7
  6
CONTINUOUS
 10
927.5793319903
 20
962.5245157661
 11
922.3831795676
 21
959.5245157661
  0
LINE
  5
3F5
100
AcDbEntity
  8
0
100
AcDbLine
 62
7
  6
CONTINUOUS
 10
997.5793319903
 20
946.5088938166
 11
1004.730819086
 21
946.5088938166
  0
LINE
  5
3F6
100
AcDbEntity
  8
0
100
AcDbLine
 62
7
  6
CONTINUOUS
 10
1117.0793319903
 20
951.5245157661
 11
1119.0793319903
 21
951.5245157661
  0
LINE
  5
3F7
100
AcDbEntity
  8
BEZUGSACHSEN
100
AcDbLine
 62
2
  6
CENTER
 10
927.5793319903
 20
956.5245157661
 11
912.0709303015
 21
956.5245157661
  0
LINE
  5
3F8
100
AcDbEntity
  8
BEZUGSACHSEN
100
AcDbLine
 62
2
  6
CENTER
 10
912.0709303015
 20
956.5245157661
 11
903.8293319903
 21
956.5245157661
  0
LINE
  5
3F9
100
AcDbEntity
  8
BEZUGSACHSEN
100
AcDbLine
 62
2
  6
CENTER
 10
927.5793319903
 20
956.5245157661
 11
951.3293319903
 21
956.5245157661
  0
LINE
  5
3FA
100
AcDbEntity
  8
0
100
AcDbLine
 62
7
  6
CONTINUOUS
 10
1004.730819086
 20
1057.5245157661
 11
1004.730819086
 21
1026.5401377155
  0
LINE
  5
3FB
100
AcDbEntity
  8
0
100
AcDbLine
 62
7
  6
CONTINUOUS
 10
1004.730819086
 20
915.5245157661
 11
1004.730819086
 21
946.5088938166
  0
LINE
  5
3FC
100
AcDbEntity
  8
0
100
AcDbLine
 62
7
  6
CONTINUOUS
 10
927.5793319903
 20
950.5245157661
 11
932.775484413
 21
953.5245157661
  0
LINE
  5
3FD
100
AcDbEntity
  8
ANSICHT_3D
100
AcDbLine
 62
2
  6
CENTER
 10
916.5793319903
 20
965.5379128966
 11
965.0793319903
 21
965.5379128966
  0
LINE
  5
3FE
100
AcDbEntity
  8
0
100
AcDbLine
 62
7
  6
CONTINUOUS
 10
1119.0793319903
 20
966.5245157661
 11
1199.0793319903
 21
966.5245157661
  0
LINE
  5
3FF
100
AcDbEntity
  8
TEIL_STARTBEZUEGE
100
AcDbLine
 62
2
  6
CENTER
 10
1209.0793319903
 20
986.5245157661
 11
845.0793319903
 21
986.5245157661
  0
LINE
  5
400
100
AcDbEntity
  8
0
100
AcDbLine
 62
7
  6
CONTINUOUS
 10
1033.5793319903
 20
915.5245157661
 11
1033.5793319903
 21
1057.5245157661
  0
LINE
  5
401
100
AcDbEntity
  8
0
100
AcDbLine
 62
7
  6
CONTINUOUS
 10
1050.3318545708
 20
915.5245157661
 11
1050.3318545708
 21
1057.5245157661
  0
LINE
  5
402
100
AcDbEntity
  8
0
100
AcDbLine
 62
7
  6
CONTINUOUS
 10
1053.0793319903
 20
916.5245157661
 11
1053.0793319903
 21
1056.5245157661
  0
LINE
  5
403
100
AcDbEntity
  8
0
100
AcDbLine
 62
7
  6
CONTINUOUS
 10
1119.0793319903
 20
1006.5245157661
 11
1199.0793319903
 21
1006.5245157661
  0
LINE
  5
404
100
AcDbEntity
  8
ANSICHT_3D
100
AcDbLine
 62
2
  6
CENTER
 10
965.0793319903
 20
1007.5245157661
 11
916.5793319903
 21
1007.5245157661
  0
LINE
  5
405
100
AcDbEntity
  8
0
100
AcDbLine
 62
7
  6
CONTINUOUS
 10
1117.0793319903
 20
1021.5245157661
 11
1119.0793319903
 21
1021.5245157661
  0
LINE
  5
406
100
AcDbEntity
  8
0
100
AcDbLine
 62
7
  6
CONTINUOUS
 10
997.5793319903
 20
1026.5401377155
 11
1004.730819086
 21
1026.5401377155
  0
LINE
  5
407
100
AcDbEntity
  8
0
100
AcDbLine
 62
7
  6
CONTINUOUS
 10
1077.0793319903
 20
915.5245157661
 11
1077.0793319903
 21
1057.5245157661
  0
LINE
  5
408
100
AcDbEntity
  8
0
100
AcDbLine
 62
7
  6
CONTINUOUS
 10
1089.0793319903
 20
1045.8140595322
 11
1077.0793319903
 21
1045.8140595322
  0
LINE
  5
409
100
AcDbEntity
  8
0
100
AcDbLine
 62
7
  6
CONTINUOUS
 10
1089.0793319903
 20
915.5245157661
 11
1089.0793319903
 21
1057.5245157661
  0
LINE
  5
40A
100
AcDbEntity
  8
0
100
AcDbLine
 62
7
  6
CONTINUOUS
 10
1089.0793319903
 20
1051.5245157661
 11
1109.0793314442
 21
1051.5245157661
  0
LINE
  5
40B
100
AcDbEntity
  8
0
100
AcDbLine
 62
7
  6
CONTINUOUS
 10
1053.0793319903
 20
1056.5245157661
 11
1077.0793319903
 21
1056.5245157661
  0
LINE
  5
40C
100
AcDbEntity
  8
0
100
AcDbLine
 62
7
  6
CONTINUOUS
 10
1089.0793319903
 20
1057.5245157661
 11
1077.0793319903
 21
1057.5245157661
  0
LINE
  5
40D
100
AcDbEntity
  8
0
100
AcDbLine
 62
7
  6
CONTINUOUS
 10
997.5793319903
 20
1057.5245157661
 11
1050.3318545708
 21
1057.5245157661
  0
LINE
  5
40E
100
AcDbEntity
  8
0
100
AcDbLine
 62
7
  6
CONTINUOUS
 10
986.6734845542
 20
1059.8218554177
 11
954.5793319903
 21
1059.8218554177
  0
LINE
  5
40F
100
AcDbEntity
  8
FASEN
100
AcDbLine
 62
7
  6
CONTINUOUS
 10
1117.0793297487
 20
1050.8245807899
 11
1109.0793291783
 21
1051.5244898665
  0
LINE
  5
410
100
AcDbEntity
  8
FASEN
100
AcDbLine
 62
7
  6
CONTINUOUS
 10
1109.0793314442
 20
1051.5245157661
 11
1109.0793314442
 21
921.5245157661
  0
LINE
  5
411
100
AcDbEntity
  8
0
100
AcDbLine
 62
7
  6
CONTINUOUS
 10
1050.3318545708
 20
915.5245157661
 11
1053.0793319903
 21
916.5245157661
  0
LINE
  5
412
100
AcDbEntity
  8
0
100
AcDbLine
 62
7
  6
CONTINUOUS
 10
1050.3318545708
 20
1057.5245157661
 11
1053.0793319903
 21
1056.5245157661
  0
LINE
  5
413
100
AcDbEntity
  8
FASEN
100
AcDbLine
 62
7
  6
CONTINUOUS
 10
1117.0793319903
 20
1050.8246064106
 11
1117.0793319903
 21
922.2244251215
  0
LINE
  5
414
100
AcDbEntity
  8
0
100
AcDbLine
 62
7
  6
CONTINUOUS
 10
1119.0793319903
 20
1021.5245157661
 11
1119.0793319903
 21
951.5245157661
  0
LINE
  5
415
100
AcDbEntity
  8
0
100
AcDbLine
 62
7
  6
CONTINUOUS
 10
954.5793319903
 20
1076.5245157661
 11
855.0793319903
 21
1076.5245157661
  0
LINE
  5
416
100
AcDbEntity
  8
0
100
AcDbLine
 62
7
  6
CONTINUOUS
 10
954.5793319903
 20
1081.4745157661
 11
997.5793319903
 21
1081.4745157661
  0
LINE
  5
417
100
AcDbEntity
  8
AUSBLENDEN
100
AcDbLine
 62
2
  6
CENTER
 10
855.0793319903
 20
1101.5245157661
 11
861.3293319903
 21
1101.5245157661
  0
LINE
  5
418
100
AcDbEntity
  8
0
100
AcDbLine
 62
7
  6
CONTINUOUS
 10
954.5793319903
 20
1106.5245157661
 11
855.0793319903
 21
1106.5245157661
  0
LINE
  5
419
100
AcDbEntity
  8
0
100
AcDbLine
 62
7
  6
CONTINUOUS
 10
1199.0793319903
 20
1006.5239706248
 11
1199.0793319903
 21
966.5250609074
  0
LINE
  5
41A
100
AcDbEntity
  8
0
100
AcDbLine
 62
7
  6
CONTINUOUS
 10
172.1959567929
 20
1076.5245157661
 11
172.1959567929
 21
896.5245157661
  0
LINE
  5
41B
100
AcDbEntity
  8
0
100
AcDbLine
 62
7
  6
CONTINUOUS
 10
202.1959567929
 20
866.5245157661
 11
382.1959567929
 21
866.5245157661
  0
LINE
  5
41C
100
AcDbEntity
  8
0
100
AcDbLine
 62
7
  6
CONTINUOUS
 10
197.2459567929
 20
913.2271761145
 11
197.2459567929
 21
1059.8218554177
  0
LINE
  5
41D
100
AcDbEntity
  8
0
100
AcDbLine
 62
7
  6
CONTINUOUS
 10
365.4932964445
 20
891.5745157661
 11
218.8986171413
 21
891.5745157661
  0
LINE
  5
41E
100
AcDbEntity
  8
0
100
AcDbLine
 62
7
  6
CONTINUOUS
 10
221.1959567929
 20
1045.8140595322
 11
221.1959567929
 21
927.2349719999
  0
LINE
  5
41F
100
AcDbEntity
  8
0
100
AcDbLine
 62
7
  6
CONTINUOUS
 10
232.9064130268
 20
915.5245157661
 11
351.4855005591
 21
915.5245157661
  0
LINE
  5
420
100
AcDbEntity
  8
TEIL_STARTBEZUEGE
100
AcDbLine
 62
2
  6
CENTER
 10
292.1959567929
 20
905.5245157661
 11
292.1959567929
 21
1067.5245157661
  0
LINE
  5
421
100
AcDbEntity
  8
0
100
AcDbLine
 62
7
  6
CONTINUOUS
 10
346.6785342833
 20
1048.7852678495
 11
346.6431789443
 21
1048.7499125105
  0
LINE
  5
422
100
AcDbEntity
  8
0
100
AcDbLine
 62
7
  6
CONTINUOUS
 10
229.9705600485
 20
932.0772936147
 11
229.9352047094
 21
932.0419382756
  0
LINE
  5
423
100
AcDbEntity
  8
TEIL_STARTBEZUEGE
100
AcDbLine
 62
2
  6
CENTER
 10
373.1959567929
 20
986.5245157661
 11
211.1959567929
 21
986.5245157661
  0
LINE
  5
424
100
AcDbEntity
  8
0
100
AcDbLine
 62
7
  6
CONTINUOUS
 10
229.9352047094
 20
1041.0070932565
 11
229.9705600485
 21
1040.9717379174
  0
LINE
  5
425
100
AcDbEntity
  8
0
100
AcDbLine
 62
7
  6
CONTINUOUS
 10
346.6431789443
 20
924.2991190217
 11
346.6785342833
 21
924.2637636826
  0
LINE
  5
426
100
AcDbEntity
  8
0
100
AcDbLine
 62
7
  6
CONTINUOUS
 10
237.7133793025
 20
924.2637636826
 11
237.7487346416
 21
924.2991190217
  0
LINE
  5
427
100
AcDbEntity
  8
0
100
AcDbLine
 62
7
  6
CONTINUOUS
 10
354.4213535373
 20
1040.9717379174
 11
354.4567088764
 21
1041.0070932565
  0
LINE
  5
428
100
AcDbEntity
  8
0
100
AcDbLine
 62
7
  6
CONTINUOUS
 10
354.4567088764
 20
932.0419382756
 11
354.4213535373
 21
932.0772936147
  0
LINE
  5
429
100
AcDbEntity
  8
0
100
AcDbLine
 62
7
  6
CONTINUOUS
 10
237.7487346416
 20
1048.7499125105
 11
237.7133793025
 21
1048.7852678495
  0
LINE
  5
42A
100
AcDbEntity
  8
0
100
AcDbLine
 62
7
  6
CONTINUOUS
 10
363.1959567929
 20
927.2349719999
 11
363.1959567929
 21
1045.8140595322
  0
LINE
  5
42B
100
AcDbEntity
  8
0
100
AcDbLine
 62
7
  6
CONTINUOUS
 10
351.4855005591
 20
1057.5245157661
 11
232.9064130268
 21
1057.5245157661
  0
LINE
  5
42C
100
AcDbEntity
  8
0
100
AcDbLine
 62
7
  6
CONTINUOUS
 10
387.1459567929
 20
1059.8218554177
 11
387.1459567929
 21
913.2271761145
  0
LINE
  5
42D
100
AcDbEntity
  8
0
100
AcDbLine
 62
7
  6
CONTINUOUS
 10
218.8986171413
 20
1081.4745157661
 11
365.4932964445
 21
1081.4745157661
  0
LINE
  5
42E
100
AcDbEntity
  8
0
100
AcDbLine
 62
7
  6
CONTINUOUS
 10
412.1959567929
 20
896.5245157661
 11
412.1959567929
 21
1076.5245157661
  0
LINE
  5
42F
100
AcDbEntity
  8
0
100
AcDbLine
 62
7
  6
CONTINUOUS
 10
382.1959567929
 20
1106.5245157661
 11
202.1959567929
 21
1106.5245157661
  0
LINE
  5
430
100
AcDbEntity
  8
0
100
AcDbLine
 62
7
  6
CONTINUOUS
 10
1679.5159869559
 20
896.5245157661
 11
1679.5159869559
 21
1076.5245157661
  0
LINE
  5
431
100
AcDbEntity
  8
0
100
AcDbLine
 62
7
  6
CONTINUOUS
 10
1889.5159869559
 20
866.5245157661
 11
1709.5159869559
 21
866.5245157661
  0
LINE
  5
432
100
AcDbEntity
  8
0
100
AcDbLine
 62
7
  6
CONTINUOUS
 10
1741.0111904481
 20
1074.6980242835
 11
1737.0101530826
 21
1072.3880242835
  0
LINE
  5
433
100
AcDbEntity
  8
0
100
AcDbLine
 62
7
  6
CONTINUOUS
 10
1711.3424784384
 20
928.0197192583
 11
1713.6524784384
 21
924.0186818928
  0
LINE
  5
434
100
AcDbEntity
  8
BEZUGSACHSEN
100
AcDbLine
 62
2
  6
CENTER
 10
1705.8243384487
 20
1080.2161642733
 11
1705.8243384487
 21
1060.1161642733
  0
LINE
  5
435
100
AcDbEntity
  8
BEZUGSACHSEN
100
AcDbLine
 62
2
  6
CENTER
 10
1705.8243384487
 20
892.8328672589
 11
1705.8243384487
 21
872.7328672589
  0
LINE
  5
436
100
AcDbEntity
  8
BEZUGSACHSEN
100
AcDbLine
 62
2
  6
CENTER
 10
1705.8243384487
 20
892.8328672589
 11
1705.8243384487
 21
912.9328672589
  0
LINE
  5
437
100
AcDbEntity
  8
BEZUGSACHSEN
100
AcDbLine
 62
2
  6
CENTER
 10
1705.8243384487
 20
1080.2161642733
 11
1705.8243384487
 21
1100.3161642733
  0
LINE
  5
438
100
AcDbEntity
  8
0
100
AcDbLine
 62
7
  6
CONTINUOUS
 10
1741.0111904481
 20
1065.4580242835
 11
1745.0122278136
 21
1067.7680242835
  0
LINE
  5
439
100
AcDbEntity
  8
BEZUGSACHSEN
100
AcDbLine
 62
2
  6
CENTER
 10
1893.2076354631
 20
892.8328672589
 11
1873.1076354631
 21
892.8328672589
  0
LINE
  5
43A
100
AcDbEntity
  8
BEZUGSACHSEN
100
AcDbLine
 62
2
  6
CENTER
 10
1705.8243384487
 20
892.8328672589
 11
1685.7243384487
 21
892.8328672589
  0
LINE
  5
43B
100
AcDbEntity
  8
BEZUGSACHSEN
100
AcDbLine
 62
2
  6
CENTER
 10
1705.8243384487
 20
892.8328672589
 11
1725.9243384487
 21
892.8328672589
  0
LINE
  5
43C
100
AcDbEntity
  8
BEZUGSACHSEN
100
AcDbLine
 62
2
  6
CENTER
 10
1893.2076354631
 20
892.8328672589
 11
1913.3076354631
 21
892.8328672589
  0
LINE
  5
43D
100
AcDbEntity
  8
0
100
AcDbLine
 62
7
  6
CONTINUOUS
 10
1720.5824784384
 20
928.0197192583
 11
1718.2724784384
 21
932.0207566237
  0
LINE
  5
43E
100
AcDbEntity
  8
BEZUGSACHSEN
100
AcDbLine
 62
2
  6
CENTER
 10
1715.9624784384
 20
928.0197192583
 11
1715.9624784384
 21
908.7697192583
  0
LINE
  5
43F
100
AcDbEntity
  8
BEZUGSACHSEN
100
AcDbLine
 62
2
  6
CENTER
 10
1715.9624784384
 20
928.0197192583
 11
1715.9624784384
 21
947.2697192583
  0
LINE
  5
440
100
AcDbEntity
  8
BEZUGSACHSEN
100
AcDbLine
 62
2
  6
CENTER
 10
1858.0207834637
 20
902.9710072486
 11
1838.7707834637
 21
902.9710072486
  0
LINE
  5
441
100
AcDbEntity
  8
BEZUGSACHSEN
100
AcDbLine
 62
2
  6
CENTER
 10
1858.0207834637
 20
902.9710072486
 11
1877.2707834637
 21
902.9710072486
  0
LINE
  5
442
100
AcDbEntity
  8
0
100
AcDbLine
 62
7
  6
CONTINUOUS
 10
1737.0101530826
 20
1072.3880242835
 11
1737.0101530826
 21
1067.7680242835
  0
LINE
  5
443
100
AcDbEntity
  8
0
100
AcDbLine
 62
7
  6
CONTINUOUS
 10
1713.6524784384
 20
924.0186818928
 11
1718.2724784384
 21
924.0186818928
  0
LINE
  5
444
100
AcDbEntity
  8
GEWINDE
100
AcDbLine
 62
2
  6
CENTER
 10
1741.0111904481
 20
1070.0780242835
 11
1741.0111904481
 21
1050.0780242835
  0
LINE
  5
445
100
AcDbEntity
  8
GEWINDE
100
AcDbLine
 62
2
  6
CENTER
 10
1741.0111904481
 20
1070.0780242835
 11
1741.0111904481
 21
1090.0780242835
  0
LINE
  5
446
100
AcDbEntity
  8
0
100
AcDbLine
 62
7
  6
CONTINUOUS
 10
1745.0122278136
 20
1067.7680242835
 11
1745.0122278136
 21
1072.3880242835
  0
LINE
  5
447
100
AcDbEntity
  8
BEZUGSACHSEN
100
AcDbLine
 62
2
  6
CENTER
 10
1715.9624784384
 20
928.0197192583
 11
1696.7124784384
 21
928.0197192583
  0
LINE
  5
448
100
AcDbEntity
  8
BEZUGSACHSEN
100
AcDbLine
 62
2
  6
CENTER
 10
1715.9624784384
 20
928.0197192583
 11
1735.2124784384
 21
928.0197192583
  0
LINE
  5
449
100
AcDbEntity
  8
0
100
AcDbLine
 62
7
  6
CONTINUOUS
 10
1718.2724784384
 20
932.0207566237
 11
1713.6524784384
 21
932.0207566237
  0
LINE
  5
44A
100
AcDbEntity
  8
0
100
AcDbLine
 62
7
  6
CONTINUOUS
 10
1713.6524784384
 20
932.0207566237
 11
1711.3424784384
 21
928.0197192583
  0
LINE
  5
44B
100
AcDbEntity
  8
0
100
AcDbLine
 62
7
  6
CONTINUOUS
 10
1718.2724784384
 20
924.0186818928
 11
1720.5824784384
 21
928.0197192583
  0
LINE
  5
44C
100
AcDbEntity
  8
BEZUGSACHSEN
100
AcDbLine
 62
7
  6
CONTINUOUS
 10
1814.6659869559
 20
948.5245157661
 11
1824.6659869559
 21
948.5245157661
  0
LINE
  5
44D
100
AcDbEntity
  8
0
100
AcDbLine
 62
7
  6
CONTINUOUS
 10
1854.0197460982
 20
900.6610072486
 11
1858.0207834637
 21
898.3510072486
  0
LINE
  5
44E
100
AcDbEntity
  8
0
100
AcDbLine
 62
7
  6
CONTINUOUS
 10
1862.0218208292
 20
905.2810072486
 11
1858.0207834637
 21
907.5910072486
  0
LINE
  5
44F
100
AcDbEntity
  8
0
100
AcDbLine
 62
7
  6
CONTINUOUS
 10
1798.7659869559
 20
965.5379128966
 11
1798.7659869559
 21
946.5315476342
  0
LINE
  5
450
100
AcDbEntity
  8
TEIL_STARTBEZUEGE
100
AcDbLine
 62
2
  6
CENTER
 10
1799.5159869559
 20
856.5245157661
 11
1799.5159869559
 21
1116.5245157661
  0
LINE
  5
451
100
AcDbEntity
  8
0
100
AcDbLine
 62
7
  6
CONTINUOUS
 10
1800.2659869559
 20
946.5315476342
 11
1800.2659869559
 21
965.5379128966
  0
LINE
  5
452
100
AcDbEntity
  8
TEIL_STARTBEZUEGE
100
AcDbLine
 62
2
  6
CENTER
 10
1669.5159869559
 20
986.5245157661
 11
1929.5159869559
 21
986.5245157661
  0
LINE
  5
453
100
AcDbEntity
  8
BEZUGSACHSEN
100
AcDbLine
 62
7
  6
CONTINUOUS
 10
1814.6659869559
 20
949.5045549341
 11
1814.6659869559
 21
948.5245157661
  0
LINE
  5
454
100
AcDbEntity
  8
BEZUGSACHSEN
100
AcDbLine
 62
7
  6
CONTINUOUS
 10
1824.6659869559
 20
955.4707843576
 11
1824.6659869559
 21
948.5257547845
  0
LINE
  5
455
100
AcDbEntity
  8
0
100
AcDbLine
 62
7
  6
CONTINUOUS
 10
1880.7594954734
 20
1049.0303496394
 11
1878.4494954734
 21
1045.0293122739
  0
LINE
  5
456
100
AcDbEntity
  8
0
100
AcDbLine
 62
7
  6
CONTINUOUS
 10
1737.0101530826
 20
1067.7680242835
 11
1741.0111904481
 21
1065.4580242835
  0
LINE
  5
457
100
AcDbEntity
  8
0
100
AcDbLine
 62
7
  6
CONTINUOUS
 10
1885.3794954734
 20
1041.0282749084
 11
1887.6894954734
 21
1045.0293122739
  0
LINE
  5
458
100
AcDbEntity
  8
0
100
AcDbLine
 62
7
  6
CONTINUOUS
 10
1745.0122278136
 20
1072.3880242835
 11
1741.0111904481
 21
1074.6980242835
  0
LINE
  5
459
100
AcDbEntity
  8
0
100
AcDbLine
 62
7
  6
CONTINUOUS
 10
1854.0197460982
 20
905.2810072486
 11
1854.0197460982
 21
900.6610072486
  0
LINE
  5
45A
100
AcDbEntity
  8
BEZUGSACHSEN
100
AcDbLine
 62
2
  6
CENTER
 10
1858.0207834637
 20
902.9710072486
 11
1858.0207834637
 21
883.7210072486
  0
LINE
  5
45B
100
AcDbEntity
  8
BEZUGSACHSEN
100
AcDbLine
 62
2
  6
CENTER
 10
1858.0207834637
 20
902.9710072486
 11
1858.0207834637
 21
922.2210072486
  0
LINE
  5
45C
100
AcDbEntity
  8
0
100
AcDbLine
 62
7
  6
CONTINUOUS
 10
1862.0218208292
 20
900.6610072486
 11
1862.0218208292
 21
905.2810072486
  0
LINE
  5
45D
100
AcDbEntity
  8
0
100
AcDbLine
 62
7
  6
CONTINUOUS
 10
1880.7594954734
 20
1041.0282749084
 11
1885.3794954734
 21
1041.0282749084
  0
LINE
  5
45E
100
AcDbEntity
  8
BEZUGSACHSEN
100
AcDbLine
 62
2
  6
CENTER
 10
1883.0694954734
 20
1045.0293122739
 11
1863.8194954734
 21
1045.0293122739
  0
LINE
  5
45F
100
AcDbEntity
  8
BEZUGSACHSEN
100
AcDbLine
 62
2
  6
CENTER
 10
1883.0694954734
 20
1045.0293122739
 11
1902.3194954734
 21
1045.0293122739
  0
LINE
  5
460
100
AcDbEntity
  8
0
100
AcDbLine
 62
7
  6
CONTINUOUS
 10
1885.3794954734
 20
1049.0303496394
 11
1880.7594954734
 21
1049.0303496394
  0
LINE
  5
461
100
AcDbEntity
  8
BEZUGSACHSEN
100
AcDbLine
 62
2
  6
CENTER
 10
1883.0694954734
 20
1045.0293122739
 11
1883.0694954734
 21
1025.7793122739
  0
LINE
  5
462
100
AcDbEntity
  8
BEZUGSACHSEN
100
AcDbLine
 62
2
  6
CENTER
 10
1883.0694954734
 20
1045.0293122739
 11
1883.0694954734
 21
1064.2793122739
  0
LINE
  5
463
100
AcDbEntity
  8
GEWINDE
100
AcDbLine
 62
2
  6
CENTER
 10
1741.0111904481
 20
1070.0780242835
 11
1721.0111904481
 21
1070.0780242835
  0
LINE
  5
464
100
AcDbEntity
  8
GEWINDE
100
AcDbLine
 62
2
  6
CENTER
 10
1741.0111904481
 20
1070.0780242835
 11
1761.0111904481
 21
1070.0780242835
  0
LINE
  5
465
100
AcDbEntity
  8
BEZUGSACHSEN
100
AcDbLine
 62
2
  6
CENTER
 10
1893.2076354631
 20
1080.2161642733
 11
1893.2076354631
 21
1060.1161642733
  0
LINE
  5
466
100
AcDbEntity
  8
BEZUGSACHSEN
100
AcDbLine
 62
2
  6
CENTER
 10
1893.2076354631
 20
892.8328672589
 11
1893.2076354631
 21
872.7328672589
  0
LINE
  5
467
100
AcDbEntity
  8
BEZUGSACHSEN
100
AcDbLine
 62
2
  6
CENTER
 10
1893.2076354631
 20
892.8328672589
 11
1893.2076354631
 21
912.9328672589
  0
LINE
  5
468
100
AcDbEntity
  8
BEZUGSACHSEN
100
AcDbLine
 62
2
  6
CENTER
 10
1893.2076354631
 20
1080.2161642733
 11
1893.2076354631
 21
1100.3161642733
  0
LINE
  5
469
100
AcDbEntity
  8
0
100
AcDbLine
 62
7
  6
CONTINUOUS
 10
1858.0207834637
 20
907.5910072486
 11
1854.0197460982
 21
905.2810072486
  0
LINE
  5
46A
100
AcDbEntity
  8
BEZUGSACHSEN
100
AcDbLine
 62
2
  6
CENTER
 10
1893.2076354631
 20
1080.2161642733
 11
1873.1076354631
 21
1080.2161642733
  0
LINE
  5
46B
100
AcDbEntity
  8
BEZUGSACHSEN
100
AcDbLine
 62
2
  6
CENTER
 10
1705.8243384487
 20
1080.2161642733
 11
1685.7243384487
 21
1080.2161642733
  0
LINE
  5
46C
100
AcDbEntity
  8
BEZUGSACHSEN
100
AcDbLine
 62
2
  6
CENTER
 10
1705.8243384487
 20
1080.2161642733
 11
1725.9243384487
 21
1080.2161642733
  0
LINE
  5
46D
100
AcDbEntity
  8
BEZUGSACHSEN
100
AcDbLine
 62
2
  6
CENTER
 10
1893.2076354631
 20
1080.2161642733
 11
1913.3076354631
 21
1080.2161642733
  0
LINE
  5
46E
100
AcDbEntity
  8
0
100
AcDbLine
 62
7
  6
CONTINUOUS
 10
1878.4494954734
 20
1045.0293122739
 11
1880.7594954734
 21
1041.0282749084
  0
LINE
  5
46F
100
AcDbEntity
  8
0
100
AcDbLine
 62
7
  6
CONTINUOUS
 10
1858.0207834637
 20
898.3510072486
 11
1862.0218208292
 21
900.6610072486
  0
LINE
  5
470
100
AcDbEntity
  8
0
100
AcDbLine
 62
7
  6
CONTINUOUS
 10
1887.6894954734
 20
1045.0293122739
 11
1885.3794954734
 21
1049.0303496394
  0
LINE
  5
471
100
AcDbEntity
  8
0
100
AcDbLine
 62
7
  6
CONTINUOUS
 10
1919.5159869559
 20
1076.5245157661
 11
1919.5159869559
 21
896.5245157661
  0
LINE
  5
472
100
AcDbEntity
  8
0
100
AcDbLine
 62
7
  6
CONTINUOUS
 10
1709.5159869559
 20
1106.5245157661
 11
1889.5159869559
 21
1106.5245157661
  0
CIRCLE
  5
473
100
AcDbEntity
  8
BEZUGSACHSEN
100
AcDbCircle
 62
7
  6
CONTINUOUS
 10
927.5793319903
 20
956.5245157661
 40
8.75
  0
ARC
  5
474
100
AcDbEntity
  8
0
100
AcDbCircle
 62
7
  6
CONTINUOUS
 10
233.824292006
 20
928.1528509791
 40
5.5
100
AcDbArc
 50
135.0
 51
315.0
  0
ARC
  5
475
100
AcDbEntity
  8
0
100
AcDbCircle
 62
7
  6
CONTINUOUS
 10
233.859647345
 20
928.1882063182
 40
5.5
100
AcDbArc
 50
315.0
 51
135.0
  0
ARC
  5
476
100
AcDbEntity
  8
0
100
AcDbCircle
 62
7
  6
CONTINUOUS
 10
233.824292006
 20
1044.896180553
 40
5.5
100
AcDbArc
 50
45.0
 51
225.0
  0
ARC
  5
477
100
AcDbEntity
  8
0
100
AcDbCircle
 62
7
  6
CONTINUOUS
 10
233.859647345
 20
1044.860825214
 40
5.5
100
AcDbArc
 50
225.0
 51
45.0
  0
ARC
  5
478
100
AcDbEntity
  8
0
100
AcDbCircle
 62
7
  6
CONTINUOUS
 10
350.5676215799
 20
928.1528509791
 40
5.5
100
AcDbArc
 50
225.0
 51
45.0
  0
ARC
  5
479
100
AcDbEntity
  8
0
100
AcDbCircle
 62
7
  6
CONTINUOUS
 10
350.5322662408
 20
928.1882063182
 40
5.5
100
AcDbArc
 50
45.0
 51
225.0
  0
ARC
  5
47A
100
AcDbEntity
  8
0
100
AcDbCircle
 62
7
  6
CONTINUOUS
 10
292.1959567929
 20
986.5245157661
 40
150.0
100
AcDbArc
 50
126.8698976458
 51
143.1301023542
  0
ARC
  5
47B
100
AcDbEntity
  8
0
100
AcDbCircle
 62
7
  6
CONTINUOUS
 10
292.1959567929
 20
986.5245157661
 40
150.0
100
AcDbArc
 50
216.8698976458
 51
233.1301023542
  0
ARC
  5
47C
100
AcDbEntity
  8
0
100
AcDbCircle
 62
7
  6
CONTINUOUS
 10
292.1959567929
 20
986.5245157661
 40
150.0
100
AcDbArc
 50
306.8698976458
 51
323.1301023542
  0
ARC
  5
47D
100
AcDbEntity
  8
0
100
AcDbCircle
 62
7
  6
CONTINUOUS
 10
292.1959567929
 20
986.5245157661
 40
150.0
100
AcDbArc
 50
36.8698976458
 51
53.1301023542
  0
ARC
  5
47E
100
AcDbEntity
  8
0
100
AcDbCircle
 62
7
  6
CONTINUOUS
 10
292.1959567929
 20
986.5245157661
 40
119.95
100
AcDbArc
 50
307.6666053575
 51
322.3333946425
  0
ARC
  5
47F
100
AcDbEntity
  8
0
100
AcDbCircle
 62
7
  6
CONTINUOUS
 10
292.1959567929
 20
986.5245157661
 40
119.95
100
AcDbArc
 50
217.6666053575
 51
232.3333946425
  0
ARC
  5
480
100
AcDbEntity
  8
0
100
AcDbCircle
 62
7
  6
CONTINUOUS
 10
292.1959567929
 20
986.5245157661
 40
119.95
100
AcDbArc
 50
127.6666053575
 51
142.3333946425
  0
ARC
  5
481
100
AcDbEntity
  8
0
100
AcDbCircle
 62
7
  6
CONTINUOUS
 10
292.1959567929
 20
986.5245157661
 40
119.95
100
AcDbArc
 50
37.6666053575
 51
52.3333946425
  0
ARC
  5
482
100
AcDbEntity
  8
0
100
AcDbCircle
 62
9
  6
CONTINUOUS
 10
292.1959567929
 20
986.5245157661
 40
95.0
100
AcDbArc
 50
181.8590020967
 51
268.1409979033
  0
ARC
  5
483
100
AcDbEntity
  8
0
100
AcDbCircle
 62
9
  6
CONTINUOUS
 10
292.1959567929
 20
986.5245157661
 40
95.0
100
AcDbArc
 50
91.8590020967
 51
178.1409979033
  0
ARC
  5
484
100
AcDbEntity
  8
0
100
AcDbCircle
 62
9
  6
CONTINUOUS
 10
292.1959567929
 20
986.5245157661
 40
95.0
100
AcDbArc
 50
1.8590020967
 51
88.1409979033
  0
ARC
  5
485
100
AcDbEntity
  8
0
100
AcDbCircle
 62
9
  6
CONTINUOUS
 10
292.1959567929
 20
986.5245157661
 40
95.0
100
AcDbArc
 50
271.8590020967
 51
358.1409979033
  0
ARC
  5
486
100
AcDbEntity
  8
0
100
AcDbCircle
 62
7
  6
CONTINUOUS
 10
292.1959567929
 20
986.5245157661
 40
92.5
100
AcDbArc
 50
309.8640417877
 51
320.1359582123
  0
ARC
  5
487
100
AcDbEntity
  8
0
100
AcDbCircle
 62
7
  6
CONTINUOUS
 10
292.1959567929
 20
986.5245157661
 40
92.5
100
AcDbArc
 50
219.8640417877
 51
230.1359582123
  0
ARC
  5
488
100
AcDbEntity
  8
0
100
AcDbCircle
 62
7
  6
CONTINUOUS
 10
292.1959567929
 20
986.5245157661
 40
92.5
100
AcDbArc
 50
129.8640417877
 51
140.1359582123
  0
ARC
  5
489
100
AcDbEntity
  8
0
100
AcDbCircle
 62
7
  6
CONTINUOUS
 10
292.1959567929
 20
986.5245157661
 40
92.5
100
AcDbArc
 50
39.8640417877
 51
50.1359582123
  0
CIRCLE
  5
48A
100
AcDbEntity
  8
ANSICHT_3D
100
AcDbCircle
 62
2
  6
CENTER
 10
292.1959567929
 20
986.5245157661
 40
82.5
  0
ARC
  5
48B
100
AcDbEntity
  8
0
100
AcDbCircle
 62
7
  6
CONTINUOUS
 10
292.1959567929
 20
986.5245157661
 40
81.5
100
AcDbArc
 50
41.2014135683
 51
48.7985864317
  0
ARC
  5
48C
100
AcDbEntity
  8
0
100
AcDbCircle
 62
7
  6
CONTINUOUS
 10
292.1959567929
 20
986.5245157661
 40
81.5
100
AcDbArc
 50
131.2014135683
 51
138.7985864317
  0
ARC
  5
48D
100
AcDbEntity
  8
0
100
AcDbCircle
 62
7
  6
CONTINUOUS
 10
292.1959567929
 20
986.5245157661
 40
81.5
100
AcDbArc
 50
221.2014135683
 51
228.7985864317
  0
ARC
  5
48E
100
AcDbEntity
  8
0
100
AcDbCircle
 62
7
  6
CONTINUOUS
 10
292.1959567929
 20
986.5245157661
 40
81.5
100
AcDbArc
 50
311.2014135683
 51
318.7985864317
  0
CIRCLE
  5
48F
100
AcDbEntity
  8
FASEN
100
AcDbCircle
 62
7
  6
CONTINUOUS
 10
292.1959567929
 20
986.5245157661
 40
65.0
  0
CIRCLE
  5
490
100
AcDbEntity
  8
FASEN
100
AcDbCircle
 62
7
  6
CONTINUOUS
 10
292.1959567929
 20
986.5245157661
 40
64.300064985
  0
CIRCLE
  5
491
100
AcDbEntity
  8
0
100
AcDbCircle
 62
7
  6
CONTINUOUS
 10
292.1959567929
 20
986.5245157661
 40
35.0
  0
CIRCLE
  5
492
100
AcDbEntity
  8
0
100
AcDbCircle
 62
7
  6
CONTINUOUS
 10
292.1959567929
 20
986.5245157661
 40
20.0
  0
ARC
  5
493
100
AcDbEntity
  8
0
100
AcDbCircle
 62
7
  6
CONTINUOUS
 10
350.5676215799
 20
1044.896180553
 40
5.5
100
AcDbArc
 50
315.0
 51
135.0
  0
ARC
  5
494
100
AcDbEntity
  8
0
100
AcDbCircle
 62
7
  6
CONTINUOUS
 10
350.5322662408
 20
1044.860825214
 40
5.5
100
AcDbArc
 50
135.0
 51
315.0
  0
CIRCLE
  5
495
100
AcDbEntity
  8
BEZUGSACHSEN
100
AcDbCircle
 62
7
  6
CONTINUOUS
 10
1715.9624784384
 20
928.0197192583
 40
9.0
  0
CIRCLE
  5
496
100
AcDbEntity
  8
0
100
AcDbCircle
 62
7
  6
CONTINUOUS
 10
1715.9624784384
 20
928.0197192583
 40
8.0
  0
ARC
  5
497
100
AcDbEntity
  8
0
100
AcDbCircle
 62
2
  6
CONTINUOUS
 10
1705.8243384487
 20
892.8328672589
 40
6.0
100
AcDbArc
 50
255.0
 51
195.0
  0
CIRCLE
  5
498
100
AcDbEntity
  8
BEZUGSACHSEN
100
AcDbCircle
 62
7
  6
CONTINUOUS
 10
1705.8243384487
 20
892.8328672589
 40
5.1
  0
CIRCLE
  5
499
100
AcDbEntity
  8
BEZUGSACHSEN
100
AcDbCircle
 62
7
  6
CONTINUOUS
 10
1741.0111904481
 20
1070.0780242835
 40
9.0
  0
CIRCLE
  5
49A
100
AcDbEntity
  8
0
100
AcDbCircle
 62
7
  6
CONTINUOUS
 10
1741.0111904481
 20
1070.0780242835
 40
8.0
  0
ARC
  5
49B
100
AcDbEntity
  8
0
100
AcDbCircle
 62
2
  6
CONTINUOUS
 10
1705.8243384487
 20
1080.2161642733
 40
6.0
100
AcDbArc
 50
255.0
 51
195.0
  0
CIRCLE
  5
49C
100
AcDbEntity
  8
BEZUGSACHSEN
100
AcDbCircle
 62
7
  6
CONTINUOUS
 10
1705.8243384487
 20
1080.2161642733
 40
5.1
  0
CIRCLE
  5
49D
100
AcDbEntity
  8
BEZUGSACHSEN
100
AcDbCircle
 62
7
  6
CONTINUOUS
 10
1858.0207834637
 20
902.9710072486
 40
9.0
  0
CIRCLE
  5
49E
100
AcDbEntity
  8
0
100
AcDbCircle
 62
7
  6
CONTINUOUS
 10
1858.0207834637
 20
902.9710072486
 40
8.0
  0
ARC
  5
49F
100
AcDbEntity
  8
0
100
AcDbCircle
 62
2
  6
CONTINUOUS
 10
1893.2076354631
 20
892.8328672589
 40
6.0
100
AcDbArc
 50
255.0
 51
195.0
  0
CIRCLE
  5
4A0
100
AcDbEntity
  8
BEZUGSACHSEN
100
AcDbCircle
 62
7
  6
CONTINUOUS
 10
1893.2076354631
 20
892.8328672589
 40
5.1
  0
ARC
  5
4A1
100
AcDbEntity
  8
0
100
AcDbCircle
 62
7
  6
CONTINUOUS
 10
1799.5159869559
 20
986.5245157661
 40
150.0
100
AcDbArc
 50
126.8698976458
 51
143.1301023542
  0
ARC
  5
4A2
100
AcDbEntity
  8
0
100
AcDbCircle
 62
7
  6
CONTINUOUS
 10
1799.5159869559
 20
986.5245157661
 40
150.0
100
AcDbArc
 50
36.8698976458
 51
53.1301023542
  0
ARC
  5
4A3
100
AcDbEntity
  8
0
100
AcDbCircle
 62
7
  6
CONTINUOUS
 10
1799.5159869559
 20
986.5245157661
 40
150.0
100
AcDbArc
 50
306.8698976458
 51
323.1301023542
  0
ARC
  5
4A4
100
AcDbEntity
  8
0
100
AcDbCircle
 62
7
  6
CONTINUOUS
 10
1799.5159869559
 20
986.5245157661
 40
150.0
100
AcDbArc
 50
216.8698976458
 51
233.1301023542
  0
CIRCLE
  5
4A5
100
AcDbEntity
  8
ANSICHT_3D
100
AcDbCircle
 62
2
  6
CENTER
 10
1799.5159869559
 20
986.5245157661
 40
132.5
  0
CIRCLE
  5
4A6
100
AcDbEntity
  8
0
100
AcDbCircle
 62
7
  6
CONTINUOUS
 10
1799.5159869559
 20
986.5245157661
 40
115.0
  0
CIRCLE
  5
4A7
100
AcDbEntity
  8
0
100
AcDbCircle
 62
7
  6
CONTINUOUS
 10
1799.5159869559
 20
986.5245157661
 40
50.0
  0
ARC
  5
4A8
100
AcDbEntity
  8
0
100
AcDbCircle
 62
7
  6
CONTINUOUS
 10
1799.5159869559
 20
986.5245157661
 40
45.0
100
AcDbArc
 50
304.0254550523
 51
302.3497267878
  0
ARC
  5
4A9
100
AcDbEntity
  8
0
100
AcDbCircle
 62
7
  6
CONTINUOUS
 10
1799.5159869559
 20
986.5245157661
 40
40.0
100
AcDbArc
 50
271.0743588229
 51
268.9256411771
  0
ARC
  5
4AA
100
AcDbEntity
  8
0
100
AcDbCircle
 62
7
  6
CONTINUOUS
 10
1799.5159869559
 20
986.5245157661
 40
30.5
100
AcDbArc
 50
268.5909453611
 51
271.4090546389
  0
CIRCLE
  5
4AB
100
AcDbEntity
  8
0
100
AcDbCircle
 62
7
  6
CONTINUOUS
 10
1799.5159869559
 20
986.5245157661
 40
21.0
  0
CIRCLE
  5
4AC
100
AcDbEntity
  8
BEZUGSACHSEN
100
AcDbCircle
 62
7
  6
CONTINUOUS
 10
1883.0694954734
 20
1045.0293122739
 40
9.0
  0
CIRCLE
  5
4AD
100
AcDbEntity
  8
0
100
AcDbCircle
 62
7
  6
CONTINUOUS
 10
1883.0694954734
 20
1045.0293122739
 40
8.0
  0
ARC
  5
4AE
100
AcDbEntity
  8
0
100
AcDbCircle
 62
2
  6
CONTINUOUS
 10
1893.2076354631
 20
1080.2161642733
 40
6.0
100
AcDbArc
 50
255.0
 51
195.0
  0
CIRCLE
  5
4AF
100
AcDbEntity
  8
BEZUGSACHSEN
100
AcDbCircle
 62
7
  6
CONTINUOUS
 10
1893.2076354631
 20
1080.2161642733
 40
5.1
  0
LINE
  5
4B0
100
AcDbEntity
  8
0
100
AcDbLine
 62
7
  6
CONTINUOUS
 10
997.5793319903
 20
989.6063171873
 11
997.5768211951
 21
996.0615575461
  0
SPLINE
  5
4B1
100
AcDbEntity
  8
0
100
AcDbSpline
 62
7
  6
CONTINUOUS
 70
0
 71
3
 72
11
 73
7
 74
0
 42
0.0000001
 43
0.0000001
 44
0.0000000001
 40
0.0
 40
0.0
 40
0.0
 40
0.0
 40
0.2502732426
 40
0.5004996411
 40
0.750542383
 40
1.0
 40
1.0
 40
1.0
 40
1.0
 10
997.5768211951
 20
996.0615575461
 30
0.0
 10
997.5696630876
 20
1001.5256283559
 30
0.0
 10
997.5361317357
 20
1012.4517057206
 30
0.0
 10
996.7072230356
 20
1028.8373130173
 30
0.0
 10
993.9361618181
 20
1045.0178218318
 30
0.0
 10
989.6747146302
 20
1055.2771378767
 30
0.0
 10
986.6734845542
 20
1059.8218554177
 30
0.0
  0
SPLINE
  5
4B2
100
AcDbEntity
  8
0
100
AcDbSpline
 62
7
  6
CONTINUOUS
 70
0
 71
3
 72
11
 73
7
 74
0
 42
0.0000001
 43
0.0000001
 44
0.0000000001
 40
0.0
 40
0.0
 40
0.0
 40
0.0
 40
0.2493524875
 40
0.4994185614
 40
0.7496894869
 40
1.0
 40
1.0
 40
1.0
 40
1.0
 10
986.6734845542
 20
913.2271761145
 30
0.0
 10
989.9683240184
 20
918.2165019337
 30
0.0
 10
994.4586110061
 20
929.5958455589
 30
0.0
 10
997.0377773326
 20
947.431123588
 30
0.0
 10
997.6048562749
 20
965.4398137569
 30
0.0
 10
997.5793319903
 20
977.4406673024
 30
0.0
 10
997.5793319903
 20
983.4427143448
 30
0.0
  0
SPLINE
  5
4B3
100
AcDbEntity
  8
0
100
AcDbSpline
 62
7
  6
CONTINUOUS
 70
0
 71
3
 72
13
 73
9
 74
0
 42
0.0000001
 43
0.0000001
 44
0.0000000001
 40
0.0
 40
0.0
 40
0.0
 40
0.0
 40
0.1248970843
 40
0.2498602269
 40
0.3748923259
 40
0.4999499815
 40
0.749922235
 40
1.0
 40
1.0
 40
1.0
 40
1.0
 10
1033.5793319903
 20
986.5245157661
 30
0.0
 10
1033.5793319903
 20
984.4004952213
 30
0.0
 10
1033.0405414199
 20
980.1355276773
 30
0.0
 10
1030.8270593975
 20
974.1135293351
 30
0.0
 10
1027.6093449865
 20
968.5785872025
 30
0.0
 10
1022.4192694015
 20
961.8216069665
 30
0.0
 10
1014.8102925521
 20
954.3377350418
 30
0.0
 10
1008.1473246758
 20
949.041548859
 30
0.0
 10
1004.730819086
 20
946.5088938166
 30
0.0
  0
SPLINE
  5
4B4
100
AcDbEntity
  8
0
100
AcDbSpline
 62
7
  6
CONTINUOUS
 70
0
 71
3
 72
13
 73
9
 74
0
 42
0.0000001
 43
0.0000001
 44
0.0000000001
 40
0.0
 40
0.0
 40
0.0
 40
0.0
 40
0.2500777854
 40
0.500050127
 40
0.62510788
 40
0.7501400955
 40
0.8751032407
 40
1.0
 40
1.0
 40
1.0
 40
1.0
 10
1004.730819086
 20
1026.5401377155
 30
0.0
 10
1008.1473249455
 20
1024.0074824733
 30
0.0
 10
1014.8102940963
 20
1018.711294997
 30
0.0
 10
1022.4192733704
 20
1011.2274204441
 30
0.0
 10
1027.6093509204
 20
1004.4704352844
 30
0.0
 10
1030.8270662228
 20
998.93548924
 30
0.0
 10
1033.0405426456
 20
992.9134925636
 30
0.0
 10
1033.5793319903
 20
988.6485307787
 30
0.0
 10
1033.5793319903
 20
986.5245157661
 30
0.0
  0
ENDSEC
  0
SECTION
  2
OBJECTS
  0
DICTIONARY
  5
C
100
AcDbDictionary
280
0
281
1
  3
ACAD_GROUP
350
D
  3
ACAD_MLINESTYLE
350
17
  3
ACAD_LAYOUT
350
1A
  3
ACAD_PLOTSETTINGS
350
19
  3
ACAD_PLOTSTYLENAME
350
E
  0
DICTIONARY
  5
D
102
{ACAD_REACTORS
330
C
102
}
100
AcDbDictionary
280
0
281
1
  0
ACDBDICTIONARYWDFLT
  5
E
102
{ACAD_REACTORS
330
C
102
}
100
AcDbDictionary
281
1
  3
Normal
350
F
100
AcDbDictionaryWithDefault
340
F
  0
DICTIONARY
  5
17
102
{ACAD_REACTORS
330
C
102
}
100
AcDbDictionary
280
0
281
1
  3
Standard
350
18
  0
DICTIONARY
  5
19
102
{ACAD_REACTORS
330
C
102
}
100
AcDbDictionary
281
1
  0
DICTIONARY
  5
1A
102
{ACAD_REACTORS
330
C
102
}
100
AcDbDictionary
281
1
  3
Model
350
4B5
  3
Layout1
350
4B6
  0
ACDBPLACEHOLDER
  5
F
102
{ACAD_REACTORS
330
E
102
}
  0
MLINESTYLE
  5
18
102
{ACAD_REACTORS
330
17
102
}
100
AcDbMlineStyle
  2
STANDARD
 70
0
  3

 62
256
 51
90.0
 52
90.0
 71
2
 49
0.5
 62
256
  6
BYLAYER
 49
-0.5
 62
256
  6
BYLAYER
  0
LAYOUT
  5
4B5
102
{ACAD_REACTORS
330
1A
102
}
100
AcDbPlotSettings
  1

  2
none_device
  4
ISO_A3_(420.00_x_297.00_MM)
  6

 40
0.0
 41
0.0
 42
0.0
 43
0.0
 44
420.0
 45
297.0
 46
0.0
 47
0.0
 48
0.0
 49
0.0
140
0.0
141
0.0
142
1.0
143
1.0
 70
1024
 72
1
 73
0
 74
0
  7

 75
0
147
1.0
148
0.0
149
0.0
100
AcDbLayout
  1
Model
 70
0
 71
0
 10
0.0
 20
0.0
 11
420.0
 21
297.0
 12
0.0
 22
0.0
 32
0.0
 14
0.0
 24
0.0
 34
0.0
 15
0.0
 25
0.0
 35
0.0
146
0.0
 13
0.0
 23
0.0
 33
0.0
 16
1.0
 26
0.0
 36
0.0
 17
0.0
 27
1.0
 37
0.0
 76
0
330
21A
345
0
346
0
  0
LAYOUT
  5
4B6
102
{ACAD_REACTORS
330
1A
102
}
100
AcDbPlotSettings
  1

  2
none_device
  4
ISO_A3_(420.00_x_297.00_MM)
  6

 40
0.0
 41
0.0
 42
0.0
 43
0.0
 44
420.0
 45
297.0
 46
0.0
 47
0.0
 48
0.0
 49
0.0
140
0.0
141
0.0
142
1.0
143
1.0
 70
0
 72
1
 73
0
 74
0
  7

 75
0
147
1.0
148
0.0
149
0.0
100
AcDbLayout
  1
Layout1
 70
0
 71
1
 10
0.0
 20
0.0
 11
420.0
 21
297.0
 12
0.0
 22
0.0
 32
0.0
 14
0.0
 24
0.0
 34
0.0
 15
0.0
 25
0.0
 35
0.0
146
0.0
 13
0.0
 23
0.0
 33
0.0
 16
1.0
 26
0.0
 36
0.0
 17
0.0
 27
1.0
 37
0.0
 76
0
330
21B
345
0
346
0
  0
ENDSEC
  0
EOF
